<?xml version="1.0" standalone="no"?>
<!DOCTYPE svg PUBLIC "-//W3C//DTD SVG 1.1//EN" "http://www.w3.org/Graphics/SVG/1.1/DTD/svg11.dtd" >
<svg xmlns="http://www.w3.org/2000/svg">
<metadata></metadata>
<defs>
<font id="helen_proregular" horiz-adv-x="989" >
<font-face units-per-em="2048" ascent="1638" descent="-410" />
<missing-glyph horiz-adv-x="612" />
<glyph unicode="fi" horiz-adv-x="1040" d="M59 819v137h121v70q0 55 4 95.5t18 83.5t37.5 69.5t66 43.5t100.5 17q39 0 104 -8v-153q-44 12 -64 12q-100 0 -100 -133v-97h164v-137h-164v-819h-166v819h-121zM924 1120h-166v191h166v-191zM758 956h166v-956h-166v956z" />
<glyph unicode="fl" horiz-adv-x="993" d="M59 819v137h121v70q0 55 4 95.5t18 83.5t37.5 69.5t66 43.5t100.5 17q39 0 104 -8v-153q-44 12 -64 12q-100 0 -100 -133v-97h164v-137h-164v-819h-166v819h-121zM688 0v1311h166v-1311h-166z" />
<glyph unicode=" "  horiz-adv-x="612" />
<glyph unicode="&#x09;" horiz-adv-x="612" />
<glyph unicode="&#xa0;" horiz-adv-x="612" />
<glyph unicode="!" horiz-adv-x="348" d="M270 207h-196v-207h196v207zM74 1311l39 -987h116l41 987h-196z" />
<glyph unicode="&#x22;" horiz-adv-x="600" d="M117 780h100l37 531h-174zM496 780l34 531h-178l37 -531h107z" />
<glyph unicode="#" horiz-adv-x="1077" d="M397 801h267l-41 -264h-261zM932 537h-193l37 264h207v112h-190l55 398h-113l-55 -398h-262l59 398h-110l-60 -398h-229v-112h211l-39 -264h-225v-111h208l-65 -426h108l70 426h260l-59 -426h112l60 426h213v111z" />
<glyph unicode="$" horiz-adv-x="1048" d="M565 133v440q116 -40 153 -65q74 -54 75 -156q0 -192 -228 -219zM223 438h-157q9 -394 395 -438v-188h104v188q168 5 279.5 106t111.5 265q0 67 -21 121t-54.5 91t-86.5 67.5t-105.5 50t-123.5 38.5v408q99 -9 146 -66q37 -42 61 -155h158q-15 175 -100 256t-265 100v154 h-104v-154q-162 -13 -259.5 -100.5t-97.5 -241.5q0 -250 357 -344v-455q-68 15 -109.5 36t-67.5 59t-38.5 82.5t-22.5 119.5zM461 1151v-391q-191 67 -191 188q0 169 191 203z" />
<glyph unicode="%" horiz-adv-x="1439" d="M1110 78q-127 0 -127 246q0 258 127 258t127 -246q0 -258 -127 -258zM78 946q0 -336 235 -336q116 0 181 95q61 94 61 264q0 329 -231 329q-246 0 -246 -352zM188 948q0 262 129 262q125 0 125 -245q0 -263 -129 -263q-125 0 -125 246zM1008 1282l-695 -1282h101 l698 1282h-104zM872 317q0 -333 238 -333q114 0 177 95t63 267q0 326 -238 326q-240 0 -240 -355z" />
<glyph unicode="&#x26;" horiz-adv-x="1181" d="M674 1022q0 -113 -162 -217q-113 144 -113 225q0 57 38.5 93t99.5 36t99 -38.5t38 -98.5zM371 729q-291 -166 -291 -387q0 -164 109 -266.5t274 -102.5q209 0 383 174l125 -147h209l-236 285q77 161 105 342h-168q-14 -147 -47 -217l-232 280q48 33 73.5 52t62 53 t54.5 64t32 73.5t14 93.5q0 132 -81.5 206.5t-211.5 74.5t-219.5 -79.5t-89.5 -205.5q0 -32 6.5 -62.5t12.5 -50.5t24 -50t26 -41.5t33.5 -45.5t32.5 -43zM463 612l287 -346q-123 -141 -265 -141q-98 0 -163.5 61.5t-65.5 157.5q0 27 4 49t15.5 42.5t20.5 34.5t32 34.5 t36.5 31.5t47 36.5t51.5 39.5z" />
<glyph unicode="'" horiz-adv-x="372" d="M117 780h100l37 531h-174z" />
<glyph unicode="(" horiz-adv-x="739" d="M467 1311q-85 -124 -136.5 -211t-96 -191.5t-63.5 -214.5t-19 -241q0 -248 74 -437.5t241 -408.5h119q-142 237 -199 417.5t-57 428.5q0 253 61 441.5t205 416.5h-129z" />
<glyph unicode=")" horiz-adv-x="620" d="M164 -393q88 130 138.5 216.5t94.5 190.5t62 210t18 237q0 254 -72 440t-241 410h-121q78 -135 120 -220.5t77 -187t48 -204t13 -238.5q0 -255 -59.5 -439.5t-206.5 -414.5h129z" />
<glyph unicode="*" horiz-adv-x="823" d="M297 1098l-197 69l-41 -133l199 -65l-125 -168l113 -82l125 170l121 -170l112 82l-127 168l203 65l-45 133l-197 -69v213h-141v-213z" />
<glyph unicode="+" horiz-adv-x="1110" d="M104 565h363v-358h139v358h367v133h-367v351h-139v-351h-363v-133z" />
<glyph unicode="," horiz-adv-x="495" d="M162 209v-209h96q-6 -79 -27 -117q-19 -36 -69 -53v-96q200 41 200 286v189h-200z" />
<glyph unicode="-" horiz-adv-x="659" d="M100 524v-153h422v153h-422z" />
<glyph unicode="." horiz-adv-x="495" d="M162 207v-207h200v207h-200z" />
<glyph unicode="/" horiz-adv-x="659" d="M422 1311l-371 -1571h158l369 1571h-156z" />
<glyph unicode="0" horiz-adv-x="1026" d="M70 623q0 -652 428 -652q86 0 155.5 29.5t116.5 83t80.5 120t51.5 148t26 159t8 161.5q0 311 -108.5 475t-317.5 164q-440 0 -440 -688zM246 631q0 260 64.5 388t197.5 128q256 0 256 -483q0 -523 -266 -523q-252 0 -252 490z" />
<glyph unicode="1" horiz-adv-x="1026" d="M166 1049v-136h301v-913h166v1282h-129q-35 -137 -115 -182q-67 -42 -223 -51z" />
<glyph unicode="2" horiz-adv-x="1026" d="M272 834q9 313 258 313q106 0 174 -62.5t68 -166.5q0 -26 -5 -50.5t-12.5 -44.5t-22.5 -40.5t-28 -36t-37 -34.5t-41.5 -32t-49 -32.5t-52.5 -32t-59 -34.5t-62 -36q-162 -97 -231 -197q-95 -133 -98 -348h866v164h-678q28 132 211 252q35 22 99 58t108 61t98 67t87 84.5 t56 104.5t23 135q0 185 -111.5 285t-297.5 100q-238 0 -357 -174q-67 -98 -76 -303h170z" />
<glyph unicode="3" horiz-adv-x="1026" d="M788 387q0 -114 -74.5 -180t-187.5 -66q-258 0 -276 273h-170q6 -216 117.5 -329.5t320.5 -113.5q200 0 323.5 114.5t123.5 307.5q0 246 -215 305q92 40 130 98.5t38 159.5q0 166 -108.5 260.5t-279.5 94.5q-203 0 -310.5 -114t-110.5 -320h167q21 270 242 270 q103 0 162 -53.5t59 -145.5q0 -194 -243 -194h-82v-146h84q290 0 290 -221z" />
<glyph unicode="4" horiz-adv-x="1026" d="M35 504v-203h600v-301h166v301h182v166h-182v815h-170zM635 1038v-571h-432z" />
<glyph unicode="5" horiz-adv-x="1026" d="M80 346q17 -180 127 -277.5t295 -97.5q202 0 324 130t122 331q0 184 -114.5 300t-296.5 116q-133 0 -246 -84l57 352h535v166h-660l-102 -704l143 -11q102 117 242 117q121 0 195.5 -76t74.5 -198q0 -125 -73.5 -197t-196.5 -72q-216 0 -254 205h-172z" />
<glyph unicode="6" horiz-adv-x="1026" d="M922 952q-18 172 -108.5 265.5t-260.5 93.5q-471 0 -471 -711q0 -307 112 -468t328 -161q194 0 309 133t115 334q0 179 -110.5 292.5t-288.5 113.5q-175 0 -299 -154q6 54 11.5 93t16.5 90t25 87t36.5 73.5t50 60.5t67.5 38t88 15q96 0 140 -45t69 -150h170zM270 414 q0 122 70.5 194t185.5 72q110 0 177 -75t67 -187q0 -118 -67.5 -197.5t-182.5 -79.5q-113 0 -181.5 75t-68.5 198z" />
<glyph unicode="7" horiz-adv-x="1026" d="M90 1282v-170h690q-415 -491 -522 -1112h184q125 648 527 1130v152h-879z" />
<glyph unicode="8" horiz-adv-x="1026" d="M276 694q-202 -94 -202 -321q0 -186 119 -294t311 -108q190 0 311 112t121 296q0 230 -201 315q162 78 162 269q0 170 -109.5 259t-283.5 89q-170 0 -280.5 -94t-110.5 -261q0 -187 163 -262zM289 948q0 92 57.5 145.5t157.5 53.5q95 0 155 -51t60 -140q0 -91 -57 -141.5 t-158 -50.5q-215 0 -215 184zM504 610q116 0 188 -62t72 -169q0 -108 -72 -173t-184 -65q-115 0 -188.5 59.5t-73.5 166.5q0 102 75 172.5t183 70.5z" />
<glyph unicode="9" horiz-adv-x="1026" d="M94 328q46 -357 377 -357q218 0 342 189q123 190 123 530q0 621 -444 621q-190 0 -302 -126t-112 -321q0 -189 104 -303.5t289 -114.5q215 0 301 170q-25 -211 -67 -303q-73 -172 -228 -172q-173 0 -211 187h-172zM250 879q0 119 66 193.5t180 74.5q113 0 176 -81 t63 -202q0 -112 -66 -183t-177 -71q-114 0 -178 73.5t-64 195.5z" />
<glyph unicode=":" horiz-adv-x="495" d="M162 207v-207h200v207h-200zM162 956v-206h200v206h-200z" />
<glyph unicode=";" horiz-adv-x="495" d="M162 209v-209h96q-6 -79 -27 -117q-19 -36 -69 -53v-96q200 41 200 286v189h-200zM162 956v-206h200v206h-200z" />
<glyph unicode="&#x3c;" horiz-adv-x="1110" d="M973 195v137l-697 299l697 299v135l-873 -385v-102z" />
<glyph unicode="=" horiz-adv-x="1110" d="M104 690h869v137h-869v-137zM104 432h869v137h-869v-137z" />
<glyph unicode="&#x3e;" horiz-adv-x="1110" d="M100 1065v-135l697 -299l-697 -299v-137l873 383v102z" />
<glyph unicode="?" horiz-adv-x="993" d="M567 346q3 123 35 182q30 59 127 140q92 86 130 152.5t38 168.5q0 163 -108.5 254.5t-278.5 91.5q-193 0 -299.5 -117t-106.5 -317h168q24 285 238 285q95 0 155 -54.5t60 -148.5q0 -105 -131 -233q-142 -136 -172 -215q-25 -73 -25 -189h170zM383 207v-207h195v207h-195 z" />
<glyph unicode="@" horiz-adv-x="1730" d="M1378 258q-190 -178 -401 -178q-122 0 -231 41.5t-189 115t-127 182t-47 236.5q0 157 70 287.5t202.5 209.5t300.5 79q227 0 375 -137.5t148 -343.5q0 -143 -68 -252q-29 -45 -83 -88t-97 -43q-39 0 -39 34q0 7 2.5 21.5t3.5 19.5l96 545h-127l-20 -108q-75 129 -221 129 q-67 0 -130 -25.5t-116.5 -74.5t-86 -130t-32.5 -182q0 -141 75 -233.5t208 -92.5q117 0 190 88q0 -96 101 -96q71 0 160 46.5t145 105.5q139 145 139 362q0 151 -80.5 279t-222 204t-311.5 76q-157 0 -288 -58.5t-214.5 -155.5t-129.5 -218.5t-46 -251.5 q0 -189 87.5 -344.5t244 -245.5t350.5 -90q173 0 293.5 68.5t240.5 218.5h-125zM893 418q-79 0 -123.5 55t-44.5 137q0 98 61 175t154 77q69 0 115.5 -48.5t46.5 -123.5q0 -108 -55.5 -188t-153.5 -84z" />
<glyph unicode="A" horiz-adv-x="1167" d="M389 537l201 575l194 -575h-395zM504 1311l-504 -1311h195l137 389h504l133 -389h198l-473 1311h-190z" />
<glyph unicode="B" horiz-adv-x="1206" d="M307 600h314q288 0 288 -217q0 -219 -309 -219h-293v436zM1098 379q0 116 -62 205q-63 94 -166 123q172 70 172 266q0 163 -129 264q-91 74 -309 74h-483v-1311h500q232 0 335 74q142 103 142 305zM854 948q0 -184 -244 -184h-303v383h289q138 0 198 -46t60 -153z" />
<glyph unicode="C" horiz-adv-x="1294" d="M1051 901h180q-10 109 -56.5 193.5t-120.5 136t-166.5 78t-199.5 26.5q-189 0 -327.5 -89t-209.5 -245t-71 -358q0 -135 34.5 -252.5t104.5 -213t188.5 -151t274.5 -55.5q223 0 376 145t173 371h-180q-26 -165 -125 -255.5t-252 -90.5q-134 0 -227 67.5t-136 180.5 t-43 262q0 109 25 201t75 164t132.5 112.5t189.5 40.5q296 0 361 -268z" />
<glyph unicode="D" horiz-adv-x="1265" d="M293 1147h258q88 0 158.5 -17t118.5 -49.5t81.5 -74t52.5 -97t27 -112.5t8 -125q0 -263 -102.5 -385.5t-333.5 -122.5h-268v983zM113 0h456q188 0 311 54t207 200q99 170 99 414q0 386 -223 546q-48 34 -100.5 55.5t-111.5 29.5t-97 10t-99 2h-442v-1311z" />
<glyph unicode="E" horiz-adv-x="1163" d="M121 1311v-1311h940v164h-760v432h705v164h-705v387h760v164h-940z" />
<glyph unicode="F" horiz-adv-x="1105" d="M121 1311v-1311h186v590h625v164h-625v393h715v164h-901z" />
<glyph unicode="G" horiz-adv-x="1366" d="M1059 907h184q-83 428 -538 428q-194 0 -336.5 -91.5t-213.5 -245.5t-71 -351q0 -162 46 -291.5t128 -213t191.5 -127.5t238.5 -44q134 0 225.5 45.5t186.5 151.5l45 -162h117v696h-572v-147h406q0 -186 -108 -300t-288 -114q-107 0 -190.5 39.5t-135 109.5t-78 161.5 t-26.5 199.5q0 87 16 164t50 142.5t84 112t121.5 73t158.5 26.5q288 0 359 -262z" />
<glyph unicode="H" horiz-adv-x="1226" d="M307 1311h-186v-1311h186v606h613v-606h186v1311h-186v-539h-613v539z" />
<glyph unicode="I" horiz-adv-x="425" d="M121 1311h186v-1311h-186v1311z" />
<glyph unicode="J" horiz-adv-x="882" d="M35 438h178q0 -55 3 -92.5t14 -79.5t30.5 -67t55 -41.5t85.5 -16.5q47 0 81 14t54 36t31.5 59t15 74.5t3.5 89.5v897h182v-897q0 -91 -17.5 -163.5t-42.5 -118t-63.5 -78.5t-69.5 -48.5t-72.5 -24t-61 -9.5t-44.5 -1q-143 0 -238.5 76.5t-115.5 210.5q-8 62 -8 160v20z " />
<glyph unicode="K" horiz-adv-x="1167" d="M121 1311h186v-693l613 693h233l-535 -598l545 -713h-217l-450 584l-189 -195v-389h-186v1311z" />
<glyph unicode="L" d="M121 0v1311h186v-1147h658v-164h-844z" />
<glyph unicode="M" horiz-adv-x="1550" d="M123 0v1311h262l391 -1094l395 1094h259v-1311h-187v1049l-385 -1049h-168l-381 1053v-1053h-186z" />
<glyph unicode="N" horiz-adv-x="1226" d="M121 0v1311h203l596 -1030v1030h182v-1311h-201l-600 1038v-1038h-180z" />
<glyph unicode="O" horiz-adv-x="1421" d="M707 -29q-194 0 -337.5 86.5t-216.5 238t-73 347.5q0 204 73 359t218.5 244t347.5 89q293 0 462 -183.5t169 -483.5q0 -148 -42 -274t-121.5 -221t-202.5 -148.5t-277 -53.5zM715 141q151 0 253.5 70t148.5 186t46 271q0 226 -116 363.5t-332 137.5q-112 0 -198.5 -39.5 t-139.5 -110.5t-80 -165t-27 -207q0 -226 115 -366t330 -140z" />
<glyph unicode="P" horiz-adv-x="1175" d="M121 0v1311h502q102 0 186 -22t151 -67t104.5 -121.5t37.5 -178.5q0 -191 -128 -300.5t-329 -109.5h-338v-512h-186zM307 678h283q321 0 321 242q0 227 -288 227h-316v-469z" />
<glyph unicode="Q" horiz-adv-x="1427" d="M1167 158l168 -138l-98 -114l-188 153q-137 -88 -338 -88q-195 0 -339.5 89t-218 241t-73.5 346q0 149 43.5 275t124 218t202 143.5t269.5 51.5q293 0 462 -183.5t169 -483.5q0 -321 -183 -510zM1163 668q0 229 -115.5 365t-332.5 136q-112 0 -198.5 -39.5t-139.5 -110.5 t-80 -165t-27 -207q0 -109 28 -200.5t82.5 -160t140 -107t194.5 -38.5q105 0 192 37l-139 109l96 110l166 -131q133 148 133 402z" />
<glyph unicode="R" horiz-adv-x="1214" d="M301 0h-180v1311h543q237 0 354 -82t117 -281q0 -218 -187 -297q55 -18 88.5 -43t50 -65t21 -81t4.5 -110v-145q0 -122 57 -207h-213q-30 108 -30 188v164q0 55 -12.5 93.5t-33.5 61t-58 35t-75 16t-96 3.5h-350v-561zM301 1147v-422h342q59 0 99 3.5t82 15.5t66.5 34 t40 60.5t15.5 93.5q0 65 -20.5 108.5t-61.5 66t-89.5 31.5t-115.5 9h-358z" />
<glyph unicode="S" horiz-adv-x="1198" d="M80 438h190q3 -104 13 -135q27 -86 119.5 -124t213.5 -38q57 0 110 11t101 33.5t76.5 64.5t28.5 98q0 98 -160 160l-399 147q-244 92 -244 301q0 93 39.5 167.5t106.5 119.5t150 68.5t175 23.5q473 0 473 -422h-190q0 132 -71.5 194t-215.5 62q-68 0 -129 -19.5 t-105.5 -65.5t-44.5 -111q0 -63 31 -91.5t109 -58.5l415 -155q244 -88 244 -301q0 -99 -43 -177t-116 -124.5t-162 -70.5t-189 -24q-526 0 -526 422v45z" />
<glyph unicode="T" horiz-adv-x="1126" d="M39 1311h1046v-164h-434v-1147h-180v1147h-432v164z" />
<glyph unicode="U" horiz-adv-x="1257" d="M119 1311h186v-815q0 -355 328 -355q158 0 241.5 94.5t83.5 256.5v819h181v-819q0 -240 -135.5 -380.5t-374.5 -140.5q-244 0 -377 131t-133 373v836z" />
<glyph unicode="V" horiz-adv-x="1196" d="M0 1311h199l407 -1102l395 1102h197l-508 -1311h-186z" />
<glyph unicode="W" horiz-adv-x="1667" d="M336 0l-336 1311h199l190 -785q20 -82 49 -260q18 90 60 260l235 785h187l235 -785l59 -260q21 123 52 260l207 785h194l-356 -1311h-185l-303 1227l-297 -1227h-190z" />
<glyph unicode="X" horiz-adv-x="1171" d="M213 0h-213l477 668l-444 643h221l330 -500l346 500h211l-439 -635l467 -676h-223l-360 530z" />
<glyph unicode="Y" horiz-adv-x="1196" d="M510 518l-510 793h213l393 -621l377 621h215l-504 -793v-518h-184v518z" />
<glyph unicode="Z" horiz-adv-x="1064" d="M20 0v162l789 985h-731v164h956v-160l-792 -987h792v-164h-1014z" />
<glyph unicode="[" horiz-adv-x="577" d="M129 -393v1704h317v-164h-153v-1376h153v-164h-317z" />
<glyph unicode="\" horiz-adv-x="698" d="M92 1311h162l369 -1571h-162z" />
<glyph unicode="]" horiz-adv-x="534" d="M393 1311v-1704h-313v164h149v1376h-149v164h313z" />
<glyph unicode="^" horiz-adv-x="718" d="M43 1085l180 265h195l178 -265h-150l-129 129l-129 -129h-145z" />
<glyph unicode="_" horiz-adv-x="1155" d="M0 -295v135h1155v-135h-1155z" />
<glyph unicode="`" horiz-adv-x="739" d="M168 1350h215l121 -265h-133z" />
<glyph unicode="a" horiz-adv-x="1030" d="M479 842q-213 0 -213 -183h-162q0 159 105 241.5t278 82.5q176 0 271.5 -70t95.5 -233v-457q0 -102 55 -102q28 0 60 16v-131q-59 -35 -113 -35q-136 0 -154 158q-152 -158 -329 -158q-137 0 -222 78.5t-85 212.5q0 140 112 217q70 50 194.5 74.5t317.5 40.5v57 q0 191 -211 191zM690 346v131q-262 -30 -354 -71q-98 -43 -98 -142q0 -143 176 -143q66 0 127 25.5t103.5 78.5t45.5 121z" />
<glyph unicode="b" horiz-adv-x="1015" d="M518 834q-110 0 -170.5 -94.5t-60.5 -262.5q0 -53 6.5 -101t23 -95t42 -80.5t66.5 -54.5t93 -21q65 0 114.5 30.5t77 82.5t41 112t13.5 127q0 70 -13.5 131.5t-41 113.5t-76.5 82t-115 30zM121 0v1311h166v-475q132 147 282 147q95 0 168 -41t116.5 -111t65 -155 t21.5 -180q0 -81 -14 -156t-45 -142.5t-76 -117.5t-110 -79.5t-144 -29.5q-154 0 -264 138v-109h-166z" />
<glyph unicode="c" horiz-adv-x="993" d="M750 346h168q-9 -164 -119 -269.5t-277 -105.5q-215 0 -328.5 133t-113.5 357q0 153 46 268t147 184.5t249 69.5q165 0 273 -96.5t123 -259.5h-168q-47 207 -228 207q-70 0 -122.5 -27.5t-82.5 -76t-44.5 -108t-14.5 -130.5q0 -367 264 -367q172 0 228 221z" />
<glyph unicode="d" horiz-adv-x="1015" d="M498 125q235 0 235 352q0 357 -235 357q-244 0 -244 -357q0 -352 244 -352zM733 862v449h164v-1311h-164v125q-66 -87 -122.5 -120.5t-153.5 -33.5q-76 0 -139.5 27.5t-107 74t-74 109.5t-44.5 133.5t-14 145.5q0 82 14.5 157.5t46 142t77 116t111 78t144.5 28.5 q162 0 262 -121z" />
<glyph unicode="e" horiz-adv-x="1026" d="M948 504v-78h-690q18 -301 264 -301q198 0 242 188h172q-31 -155 -145.5 -248.5t-272.5 -93.5q-107 0 -191.5 39t-138 108t-81 160.5t-27.5 198.5q0 145 50 258t153.5 180.5t246.5 67.5q108 0 189.5 -36.5t130.5 -102t73.5 -151t24.5 -189.5zM526 834q-237 0 -264 -261 h518q-9 123 -75.5 192t-178.5 69z" />
<glyph unicode="f" horiz-adv-x="620" d="M59 819v137h121v70q0 55 4 95.5t18 83.5t37.5 69.5t66 43.5t100.5 17q39 0 104 -8v-153q-44 12 -64 12q-100 0 -100 -133v-97h164v-137h-164v-819h-166v819h-121z" />
<glyph unicode="g" horiz-adv-x="1017" d="M733 827v129h164v-811q0 -104 -11.5 -184t-39.5 -148.5t-75 -112.5t-119.5 -68.5t-170.5 -24.5q-170 0 -257 69.5t-107 223.5h164q20 -79 64 -111.5t132 -32.5q136 0 196 94.5t60 301.5q-119 -152 -280 -152q-96 0 -169 36t-117 100t-65.5 145.5t-21.5 179.5 q0 105 22 196.5t66 165.5t118.5 117t170.5 43q169 0 276 -156zM496 150q83 0 138 48t77 118.5t22 160.5q0 65 -13 125.5t-39.5 114t-74.5 85.5t-110 32q-65 0 -113 -31.5t-74 -84.5t-38.5 -113.5t-12.5 -127.5q0 -157 62.5 -242t175.5 -85z" />
<glyph unicode="h" horiz-adv-x="1005" d="M121 1311h166v-457q123 129 286 129q310 0 310 -352v-631h-164v590q0 124 -38 184t-144 60q-60 0 -105.5 -20.5t-72 -52.5t-43.5 -76.5t-23 -86.5t-6 -88v-510h-166v1311z" />
<glyph unicode="i" horiz-adv-x="403" d="M287 1120h-166v191h166v-191zM121 956h166v-956h-166v956z" />
<glyph unicode="j" horiz-adv-x="446" d="M141 1120v191h166v-191h-166zM-12 -385v152q42 -11 63 -11q26 1 43.5 9.5t26.5 20.5t13.5 35.5t5.5 41t1 49.5v1044h166v-1067q0 -282 -221 -282q-48 0 -98 8z" />
<glyph unicode="k" horiz-adv-x="925" d="M117 0v1311h164v-776l372 421h217l-366 -387l393 -569h-203l-309 446l-104 -98v-348h-164z" />
<glyph unicode="l" horiz-adv-x="446" d="M141 0v1311h166v-1311h-166z" />
<glyph unicode="m" horiz-adv-x="1503" d="M125 956h164v-116q74 76 131.5 109.5t146.5 33.5q152 0 242 -143q64 72 128.5 107.5t156.5 35.5q288 0 288 -332v-651h-163v623q0 211 -162 211q-67 0 -123.5 -38.5t-77.5 -101.5q-20 -65 -20 -184v-510h-164v604q0 47 -3 78.5t-11.5 62.5t-24.5 49t-42.5 29t-64.5 11 q-161 0 -219 -158q-18 -44 -18 -162v-514h-164v956z" />
<glyph unicode="n" horiz-adv-x="1005" d="M123 0v956h164v-122q64 81 129.5 115t161.5 34q95 0 174 -45t110 -127q21 -79 21 -201v-610h-164v578q0 132 -40.5 194t-152.5 62q-75 0 -137.5 -42.5t-87.5 -111.5q-14 -41 -14 -176v-504h-164z" />
<glyph unicode="o" horiz-adv-x="1017" d="M76 477q0 110 26 200.5t78 159.5t136.5 107.5t193.5 38.5q143 0 242.5 -67.5t145.5 -179.5t46 -259q0 -107 -27.5 -198t-80 -160t-136.5 -108.5t-190 -39.5q-211 0 -322.5 139.5t-111.5 366.5zM510 125q123 0 190.5 94.5t67.5 267.5q0 93 -24.5 168.5t-84.5 127 t-149 51.5q-124 0 -191 -93.5t-67 -263.5q0 -167 67 -259.5t191 -92.5z" />
<glyph unicode="p" horiz-adv-x="1017" d="M121 -369v1325h166v-112q65 76 125.5 107.5t152.5 31.5q98 0 171.5 -40.5t116 -110.5t63 -155.5t20.5 -184.5q0 -101 -22.5 -192t-67.5 -165.5t-120 -118.5t-171 -45q-154 0 -268 129v-469h-166zM281 477q0 -69 12 -128.5t38.5 -111.5t75 -82t115.5 -30q66 0 115 30.5 t75.5 82.5t39 111.5t12.5 127.5q0 71 -13 132.5t-40.5 113t-76 81.5t-112.5 30q-114 0 -177.5 -94.5t-63.5 -262.5z" />
<glyph unicode="q" horiz-adv-x="1015" d="M258 477q0 -63 12 -122t37.5 -112.5t72 -85.5t107.5 -32q62 0 109 32t72.5 85t38 112t12.5 123q0 65 -12 125t-37.5 113.5t-72.5 86t-110 32.5q-62 0 -108.5 -32.5t-71.5 -86t-37 -113.5t-12 -125zM719 840v116h164v-1325h-164v490q-93 -150 -268 -150q-97 0 -170.5 41.5 t-116 112.5t-63.5 157.5t-21 184.5q0 102 23.5 193t69 164t120 116t168.5 43q199 0 258 -143z" />
<glyph unicode="r" horiz-adv-x="634" d="M121 0v956h166v-155q89 182 231 182q47 0 68 -6v-176q-14 4 -51 4q-145 0 -205 -100q-43 -73 -43 -230v-475h-166z" />
<glyph unicode="s" horiz-adv-x="907" d="M72 313h172q0 -100 50 -144t161 -44q94 0 150.5 37.5t56.5 99.5q0 55 -93 96l-301 129q-172 73 -172 215q0 90 53.5 155.5t133 95.5t172.5 30q100 0 178.5 -33t127.5 -103t50 -167h-170q-6 154 -190 154q-69 0 -126 -29t-57 -86q0 -54 82 -88l279 -113q117 -47 163 -96 t46 -135q0 -78 -32 -139.5t-86.5 -99.5t-122.5 -57.5t-144 -19.5q-183 0 -282 89t-99 253z" />
<glyph unicode="t" horiz-adv-x="530" d="M35 819v137h127v238h166v-238h153v-137h-153v-581q0 -71 18 -92.5t86 -24.5q25 0 49 4v-145q-113 -9 -119 -9q-52 0 -88.5 12.5t-58 33.5t-33.5 58t-16 76.5t-4 98.5v569h-127z" />
<glyph unicode="u" horiz-adv-x="1007" d="M121 956h166v-608q0 -125 43 -174q40 -49 141 -49q127 0 197 104q57 85 57 242v485h164v-956h-164v150q-77 -179 -293 -179q-311 0 -311 371v614z" />
<glyph unicode="v" horiz-adv-x="864" d="M180 956l252 -753l250 753h182l-356 -956h-166l-342 956h180z" />
<glyph unicode="w" horiz-adv-x="1286" d="M289 0l-279 956h180l140 -559q2 -12 7 -35.5t14.5 -67t17.5 -81.5q14 77 39 184l145 559h184l140 -550q13 -43 38 -185q9 51 43 185l152 550h170l-287 -956h-168l-184 735l-186 -735h-166z" />
<glyph unicode="x" horiz-adv-x="882" d="M344 492l-317 464h209l208 -329l213 329h207l-319 -452l336 -504h-207l-230 367l-233 -367h-201z" />
<glyph unicode="y" horiz-adv-x="882" d="M197 956l256 -757l247 757h181l-381 -1062q-54 -148 -88 -191q-65 -96 -172 -96q-75 0 -138 16v158q61 -25 99 -25q57 0 84 41q26 37 80 183l-355 976h187z" />
<glyph unicode="z" horiz-adv-x="876" d="M55 133l541 676h-502v147h715v-129l-539 -677h553v-150h-768v133z" />
<glyph unicode="{" horiz-adv-x="698" d="M246 457q84 -21 123 -72q32 -53 32 -147v-439q0 -150 154 -188q-168 0 -229 37q-88 49 -88 207v421q0 151 -146 181q146 38 146 178v457q0 219 288 219h29q-86 -35 -104 -56q-50 -41 -50 -139v-452q0 -88 -32 -138q-33 -42 -123 -69z" />
<glyph unicode="|" horiz-adv-x="452" d="M178 -260v1571h139v-1571h-139z" />
<glyph unicode="}" horiz-adv-x="659" d="M379 457q-91 28 -123 71q-35 47 -35 136v452q0 89 -41 127q-26 36 -110 68q152 0 219 -31q98 -51 98 -188v-457q0 -141 143 -178q-143 -30 -143 -181v-421q0 -152 -88 -203q-65 -41 -229 -41q151 38 151 188v439q0 97 35 147q36 51 123 72z" />
<glyph unicode="~" horiz-adv-x="739" d="M496 1350h108q-53 -215 -186 -215q-42 0 -107 32q-73 31 -104 31q-45 0 -74 -63h-108q47 215 184 215q36 0 108 -35q65 -33 109 -33q29 0 70 68z" />
<glyph unicode="&#xa1;" horiz-adv-x="598" d="M395 750v204h-192v-204h192zM354 635l41 -985h-192l37 985h114z" />
<glyph unicode="&#xa2;" horiz-adv-x="997" d="M469 119v710q-207 -76 -207 -370q0 -279 207 -340zM567 1110v-135q320 -44 332 -354h-149q-30 191 -183 206v-704q25 6 45 15t34.5 17.5t28.5 26.5t21.5 29t19 38t16.5 40.5t18 48.5h149q-52 -320 -332 -367v-172h-98v172q-188 30 -281.5 159.5t-93.5 328.5 q0 449 375 516v135h98z" />
<glyph unicode="&#xa3;" horiz-adv-x="997" d="M903 877h-153q-18 299 -263 299q-108 0 -177.5 -65t-69.5 -175q0 -77 90 -262h317v-111h-262q18 -71 18 -125q0 -162 -133 -286q62 24 131 24q44 0 147 -26.5t142 -26.5q97 0 174 59l74 -121q-93 -84 -246 -84q-51 0 -185.5 38t-180.5 38q-89 0 -185 -71l-84 127 q197 153 197 319q0 54 -35 135h-162v111h105q-86 137 -86 256q0 175 116 276t295 101q192 0 304 -116t112 -314z" />
<glyph unicode="&#xa4;" horiz-adv-x="997" d="M326 625q0 -80 48 -134.5t124 -54.5t133 54.5t57 134.5q0 71 -56.5 124.5t-127.5 53.5q-72 0 -125 -52.5t-53 -125.5zM166 1051l143 -142q85 58 189 58q105 0 190 -58l141 142l93 -93l-142 -141q58 -88 58 -190q0 -104 -58 -189l142 -143l-93 -90l-141 141 q-83 -57 -190 -57q-103 0 -189 57l-143 -141l-90 90l141 143q-57 83 -57 189q0 104 57 190l-141 141z" />
<glyph unicode="&#xa5;" horiz-adv-x="997" d="M991 1280l-227 -446h186v-117h-248l-63 -133h264v-111h-323v-473h-164v473h-324v111h266l-67 133h-248v117h190l-229 446h176l320 -633l317 633h174z" />
<glyph unicode="&#xa6;" horiz-adv-x="475" d="M295 420v-813h-137v747zM158 500v811h137v-746z" />
<glyph unicode="&#xa7;" horiz-adv-x="1085" d="M848 1044h-139q-2 50 -13 86.5t-26.5 56t-39 31t-43 14.5t-44.5 3q-68 0 -104 -36t-36 -97q0 -29 7.5 -53.5t25 -44t34.5 -34t47 -29.5t51 -23.5t59 -23.5t59 -24q93 -41 151.5 -86t93 -112.5t34.5 -157.5q0 -61 -17.5 -111.5t-42.5 -81.5t-59 -54.5t-59 -34t-50 -17.5 q113 -40 113 -209q0 -55 -15 -100t-37.5 -73t-55.5 -49t-61.5 -31t-64 -15.5t-54.5 -6.5t-40 -1q-83 0 -144 26.5t-93 63t-50.5 86t-22.5 85t-3 70.5l137 -2q-2 -36 6.5 -70.5t28 -65t55.5 -49.5t84 -19q97 0 135.5 41.5t38.5 99.5q0 21 -3.5 39t-13.5 34t-17.5 27.5 t-27 24.5t-30.5 20.5t-37.5 19.5t-39.5 17t-46 18t-47 19q-48 20 -84 38.5t-82 51.5t-75 70t-49.5 92.5t-20.5 120.5q0 125 61.5 201t159.5 98q-52 36 -75 88.5t-23 130.5q0 107 78 179.5t223 72.5q22 0 41 -1t52.5 -8t60 -18.5t56.5 -35t50 -55.5t32.5 -82.5t10.5 -113.5z M623 281q32 10 60.5 26t57.5 43.5t46.5 71t17.5 98.5q0 67 -29 113.5t-104 90.5t-215 93q-94 -26 -137.5 -84.5t-43.5 -134.5q0 -61 18 -104.5t66.5 -79.5t87 -55t124.5 -56q34 -14 51 -22z" />
<glyph unicode="&#xa8;" horiz-adv-x="598" d="M371 1343h164v-213h-164v213zM61 1130v213h164v-213h-164z" />
<glyph unicode="&#xa9;" horiz-adv-x="1509" d="M98 655q0 179 87 329.5t238.5 238.5t332.5 88q180 0 331 -88t237.5 -239t86.5 -329q0 -133 -51 -254t-138.5 -209t-209 -140t-256.5 -52q-181 0 -332.5 88t-238.5 238.5t-87 328.5zM223 655q0 -152 70.5 -280t193 -202.5t269.5 -74.5q146 0 268.5 74.5t193 202.5 t70.5 280t-70.5 280t-193 202.5t-268.5 74.5q-147 0 -269.5 -74.5t-193 -202.5t-70.5 -280zM909 557h123q-10 -58 -30.5 -101.5t-46.5 -68.5t-60 -40t-65 -20t-68 -5q-73 0 -130 23t-90 57.5t-54 81.5t-28 88.5t-7 84.5q0 82 19.5 146.5t50 102.5t72 62t80.5 33t81 9 q43 0 85 -11t82.5 -34t66 -67t26.5 -103h-117q-2 19 -8 36.5t-20.5 38t-44 33t-70.5 12.5q-56 0 -94 -26.5t-54.5 -71t-22 -81.5t-5.5 -79q0 -25 3.5 -52t15.5 -62.5t31 -62.5t54 -45.5t80 -18.5q126 0 145 141z" />
<glyph unicode="&#xaa;" horiz-adv-x="663" d="M633 530h-608v121h608v-121zM420 952v60q-25 -3 -73 -10.5t-73 -10.5q-47 -7 -71.5 -27.5t-24.5 -50.5q0 -73 92 -73q55 0 105 32q45 36 45 80zM195 1122h-115q9 209 233 209t224 -184v-266q0 -45 26 -45h2q2 1 6.5 1.5t12.5 1t14 1.5v-90q-43 -15 -70 -15q-82 0 -94 72 q-85 -76 -194 -76q-78 0 -131 47q-52 52 -52 125q0 115 107 158q51 20 209 43q45 6 45 45q0 72 -111 72q-59 0 -83.5 -21t-28.5 -78z" />
<glyph unicode="&#xab;" horiz-adv-x="866" d="M197 510l198 -168v-156l-278 246v154l278 245v-153zM526 510l199 -168v-156l-279 246v154l279 245v-153z" />
<glyph unicode="&#xac;" horiz-adv-x="1124" d="M94 723h936v-379h-115v262h-821v117z" />
<glyph unicode="&#xad;" horiz-adv-x="659" d="M100 524v-153h422v153h-422z" />
<glyph unicode="&#xae;" horiz-adv-x="1509" d="M98 655q0 179 87 329.5t238.5 238.5t332.5 88q180 0 331 -88t237.5 -239t86.5 -329q0 -133 -51 -254t-138.5 -209t-209 -140t-256.5 -52q-181 0 -332.5 88t-238.5 238.5t-87 328.5zM223 655q0 -152 70.5 -280t193 -202.5t269.5 -74.5q146 0 268.5 74.5t193 202.5 t70.5 280t-70.5 280t-193 202.5t-268.5 74.5q-147 0 -269.5 -74.5t-193 -202.5t-70.5 -280zM516 334v655h289q26 0 50 -3t56 -14.5t55 -30.5t39.5 -55.5t16.5 -84.5q0 -105 -111 -150v-4q24 -5 41.5 -17.5t27 -26.5t15 -35.5t7 -38t2.5 -40.5q1 -23 2 -51t2 -38.5t3 -24.5 t6.5 -22t12.5 -19h-125q-4 5 -7 8.5t-5 9t-3.5 9t-2.5 11.5t-1.5 13t-1.5 17.5t-1 20.5t-0.5 27t-1.5 33q-1 29 -4.5 45.5t-16.5 37t-43.5 30.5t-79.5 10h-100v-272h-121zM637 899v-205h141q119 0 119 107q0 55 -34 76.5t-99 21.5h-127z" />
<glyph unicode="&#xaf;" horiz-adv-x="1024" />
<glyph unicode="&#xb0;" horiz-adv-x="497" d="M70 1135q0 74 52.5 126t127.5 52q74 0 127 -52.5t53 -125.5q0 -75 -53 -128t-127 -53q-75 0 -127.5 53t-52.5 128zM156 1135q0 -38 28 -66.5t66 -28.5q37 0 64.5 28.5t27.5 66.5q0 37 -27.5 64.5t-64.5 27.5q-38 0 -66 -27.5t-28 -64.5z" />
<glyph unicode="&#xb1;" horiz-adv-x="997" d="M930 0h-864v139h864v-139zM428 561h-362v135h362v353h139v-353h363v-135h-363v-354h-139v354z" />
<glyph unicode="&#xb2;" horiz-adv-x="1026" d="M272 834q9 313 258 313q106 0 174 -62.5t68 -166.5q0 -26 -5 -50.5t-12.5 -44.5t-22.5 -40.5t-28 -36t-37 -34.5t-41.5 -32t-49 -32.5t-52.5 -32t-59 -34.5t-62 -36q-162 -97 -231 -197q-95 -133 -98 -348h866v164h-678q28 132 211 252q35 22 99 58t108 61t98 67t87 84.5 t56 104.5t23 135q0 185 -111.5 285t-297.5 100q-238 0 -357 -174q-67 -98 -76 -303h170z" />
<glyph unicode="&#xb3;" horiz-adv-x="1026" d="M788 387q0 -114 -74.5 -180t-187.5 -66q-258 0 -276 273h-170q6 -216 117.5 -329.5t320.5 -113.5q200 0 323.5 114.5t123.5 307.5q0 246 -215 305q92 40 130 98.5t38 159.5q0 166 -108.5 260.5t-279.5 94.5q-203 0 -310.5 -114t-110.5 -320h167q21 270 242 270 q103 0 162 -53.5t59 -145.5q0 -194 -243 -194h-82v-146h84q290 0 290 -221z" />
<glyph unicode="&#xb4;" horiz-adv-x="598" d="M133 1081l121 262h209l-197 -262h-133z" />
<glyph unicode="&#xb6;" horiz-adv-x="919" d="M385 -346v1040q-132 3 -220.5 90.5t-88.5 219.5q0 129 90 218t219 89h115v-1657h-115zM678 -346v1657h117v-1657h-117z" />
<glyph unicode="&#xb7;" horiz-adv-x="468" d="M143 399v207h185v-207h-185z" />
<glyph unicode="&#xb8;" horiz-adv-x="598" d="M276 0h89l-84 -121q38 12 67 12q77 0 122.5 -38.5t45.5 -102.5q0 -78 -65 -123q-61 -47 -170 -47q-98 0 -197 41l35 74q72 -27 149 -27q99 0 99 76q0 70 -97 70q-30 0 -73 -17l-37 39z" />
<glyph unicode="&#xb9;" horiz-adv-x="1026" d="M166 1049v-136h301v-913h166v1282h-129q-35 -137 -115 -182q-67 -42 -223 -51z" />
<glyph unicode="&#xba;" horiz-adv-x="653" d="M631 530h-606v121h606v-121zM180 1036q0 -196 148 -196q145 0 145 194q0 187 -143 187q-150 0 -150 -185zM59 1026q0 141 74 221q75 84 199 84q120 0 190 -82q70 -79 70 -217q0 -141 -74 -221q-68 -80 -192 -80q-126 0 -195 78q-72 81 -72 217z" />
<glyph unicode="&#xbb;" horiz-adv-x="866" d="M670 510l-199 168v153l279 -245v-154l-279 -246v156zM340 510l-199 168v153l279 -245v-154l-279 -246v156z" />
<glyph unicode="&#xbc;" horiz-adv-x="1484" d="M1249 1339h-86l-903 -1390h86zM123 1214v-73h164v-502h92v704h-72q-19 -77 -63 -100q-38 -23 -121 -29zM934 238v-111h328v-164h90v164h100v90h-100v445h-92zM1262 528v-311h-236z" />
<glyph unicode="&#xbd;" horiz-adv-x="1585" d="M106 1141v-92h187v-527h113v756h-89q-22 -83 -61 -109q-43 -22 -150 -28zM1085 1278l-696 -1278h115l692 1278h-111zM1120 477q3 187 156 187q64 0 103.5 -34.5t39.5 -92.5q0 -83 -147 -166q-188 -105 -225 -154q-61 -73 -64 -217h557v113h-428q25 74 139 131 q188 98 193 102q96 71 96 191q0 107 -69.5 168t-192.5 61q-155 0 -229 -102q-45 -57 -45 -187h116z" />
<glyph unicode="&#xbe;" horiz-adv-x="1585" d="M158 774h-121q9 -264 287 -264q128 0 202 65q80 74 80 177q0 133 -119 182q86 50 86 145q0 101 -65 154q-69 57 -180 57q-151 0 -222 -92q-46 -58 -49 -170h115q15 158 147 158q134 0 134 -107q0 -63 -41 -86q-43 -19 -156 -22v-101q128 0 176 -26q49 -27 49 -94 q0 -62 -42.5 -99t-114.5 -37q-154 0 -166 160zM1085 1278l-696 -1278h115l692 1278h-111zM963 299v-123h374v-176h121v176h111v105h-111v469h-123zM1337 584v-303h-252z" />
<glyph unicode="&#xbf;" horiz-adv-x="1095" d="M485 614q-6 -121 -34 -182q-31 -60 -127 -143q-103 -94 -134 -156q-38 -66 -38 -162q0 -159 106 -252q110 -96 283 -96q188 0 293.5 113t111.5 319h-170q-18 -280 -235 -280q-98 0 -154.5 54t-56.5 148q0 103 125 228q149 140 174 217q22 71 22 192h-166zM668 750v204 h-197v-204h197z" />
<glyph unicode="&#xc0;" horiz-adv-x="1167" d="M389 537l201 575l194 -575h-395zM504 1311l-504 -1311h195l137 389h504l133 -389h198l-473 1311h-190zM336 1679h215l121 -264h-133z" />
<glyph unicode="&#xc1;" horiz-adv-x="1167" d="M389 537l201 575l194 -575h-395zM504 1311l-504 -1311h195l137 389h504l133 -389h198l-473 1311h-190zM535 1411l120 262h209l-196 -262h-133z" />
<glyph unicode="&#xc2;" horiz-adv-x="1167" d="M389 537l201 575l194 -575h-395zM504 1311l-504 -1311h195l137 389h504l133 -389h198l-473 1311h-190zM516 1673l-180 -262h143l129 131l127 -131h146l-174 262h-191z" />
<glyph unicode="&#xc3;" horiz-adv-x="1167" d="M389 537l201 575l194 -575h-395zM504 1311l-504 -1311h195l137 389h504l133 -389h198l-473 1311h-190zM786 1681q-34 -63 -67 -63q-37 0 -107 31q-72 32 -106 32q-142 0 -191 -211h115q29 62 70 62q24 0 102 -31q73 -31 111 -31q139 0 182 211h-109z" />
<glyph unicode="&#xc4;" horiz-adv-x="1167" d="M389 537l201 575l194 -575h-395zM504 1311l-504 -1311h195l137 389h504l133 -389h198l-473 1311h-190zM666 1683h163v-213h-163v213zM356 1470v213h164v-213h-164z" />
<glyph unicode="&#xc5;" horiz-adv-x="1167" d="M389 537l201 575l194 -575h-395zM504 1311l-504 -1311h195l137 389h504l133 -389h198l-473 1311h-190zM594 1690q-76 0 -135 -56q-56 -53 -56 -133q0 -77 56 -133q60 -57 135 -57q76 0 133 57q55 55 55 133q0 81 -55 133q-56 56 -133 56zM594 1593q37 0 63.5 -27 t26.5 -65t-26.5 -65t-63.5 -27q-39 0 -66 27q-26 26 -26 65q0 38 27.5 65t64.5 27z" />
<glyph unicode="&#xc6;" horiz-adv-x="1789" d="M471 537h377v604h-98zM668 1307h1026v-166h-662v-385h606v-164h-606v-428h672v-164h-856v389h-449l-188 -389h-199z" />
<glyph unicode="&#xc7;" horiz-adv-x="1294" d="M1051 901h180q-10 109 -56.5 193.5t-120.5 136t-166.5 78t-199.5 26.5q-189 0 -327.5 -89t-209.5 -245t-71 -358q0 -135 34.5 -252.5t104.5 -213t188.5 -151t274.5 -55.5q223 0 376 145t173 371h-180q-26 -165 -125 -255.5t-252 -90.5q-134 0 -227 67.5t-136 180.5 t-43 262q0 109 25 201t75 164t132.5 112.5t189.5 40.5q296 0 361 -268zM614 0h88l-84 -121q38 12 68 12q77 0 122.5 -38.5t45.5 -102.5q0 -78 -66 -123q-61 -47 -170 -47q-97 0 -196 41l35 74q72 -27 149 -27q99 0 99 76q0 70 -97 70q-30 0 -73 -17l-37 39z" />
<glyph unicode="&#xc8;" horiz-adv-x="1163" d="M121 1311v-1311h940v164h-760v432h705v164h-705v387h760v164h-940zM365 1712h215l120 -264h-133z" />
<glyph unicode="&#xc9;" horiz-adv-x="1163" d="M121 1311v-1311h940v164h-760v432h705v164h-705v387h760v164h-940zM541 1415l121 262h208l-196 -262h-133z" />
<glyph unicode="&#xca;" horiz-adv-x="1193" d="M121 1311v-1311h940v164h-760v432h705v164h-705v387h760v164h-940zM535 1710l-181 -262h144l129 131l127 -131h145l-174 262h-190z" />
<glyph unicode="&#xcb;" horiz-adv-x="1163" d="M121 1311v-1311h940v164h-760v432h705v164h-705v387h760v164h-940zM670 1681h164v-213h-164v213zM360 1468v213h164v-213h-164z" />
<glyph unicode="&#xcc;" horiz-adv-x="425" d="M121 1311h186v-1311h-186v1311zM-47 1714h215l121 -264h-133z" />
<glyph unicode="&#xcd;" horiz-adv-x="423" d="M121 1311h186v-1311h-186v1311zM164 1446l121 262h209l-197 -262h-133z" />
<glyph unicode="&#xce;" horiz-adv-x="497" d="M156 1311h186v-1311h-186v1311zM158 1710l-181 -262h144l129 131l127 -131h145l-174 262h-190z" />
<glyph unicode="&#xcf;" horiz-adv-x="497" d="M156 1311h186v-1311h-186v1311zM324 1683h163v-213h-163v213zM14 1470v213h164v-213h-164z" />
<glyph unicode="&#xd0;" horiz-adv-x="1265" d="M2 596v164h111v551h442q151 0 240 -18.5t168 -78.5q223 -168 223 -546q0 -244 -99 -414q-83 -145 -206.5 -199.5t-311.5 -54.5h-456v596h-111zM293 1147v-387h305v-164h-305v-432h268q173 0 262 59q174 116 174 449q0 292 -163 409q-94 66 -283 66h-258z" />
<glyph unicode="&#xd1;" horiz-adv-x="1228" d="M121 0v1311h203l596 -1030v1030h182v-1311h-201l-600 1038v-1038h-180zM856 1683q-34 -63 -68 -63q-36 0 -106 31q-72 32 -107 32q-141 0 -190 -210h115q28 61 69 61q25 0 103 -31q71 -30 110 -30q140 0 183 210h-109z" />
<glyph unicode="&#xd2;" horiz-adv-x="1421" d="M707 -29q-194 0 -337.5 86.5t-216.5 238t-73 347.5q0 204 73 359t218.5 244t347.5 89q293 0 462 -183.5t169 -483.5q0 -148 -42 -274t-121.5 -221t-202.5 -148.5t-277 -53.5zM715 141q151 0 253.5 70t148.5 186t46 271q0 226 -116 363.5t-332 137.5q-112 0 -198.5 -39.5 t-139.5 -110.5t-80 -165t-27 -207q0 -226 115 -366t330 -140zM422 1710h215l121 -264h-133z" />
<glyph unicode="&#xd3;" horiz-adv-x="1421" d="M707 -29q-194 0 -337.5 86.5t-216.5 238t-73 347.5q0 204 73 359t218.5 244t347.5 89q293 0 462 -183.5t169 -483.5q0 -148 -42 -274t-121.5 -221t-202.5 -148.5t-277 -53.5zM715 141q151 0 253.5 70t148.5 186t46 271q0 226 -116 363.5t-332 137.5q-112 0 -198.5 -39.5 t-139.5 -110.5t-80 -165t-27 -207q0 -226 115 -366t330 -140zM635 1446l121 262h209l-197 -262h-133z" />
<glyph unicode="&#xd4;" horiz-adv-x="1421" d="M707 -29q-194 0 -337.5 86.5t-216.5 238t-73 347.5q0 204 73 359t218.5 244t347.5 89q293 0 462 -183.5t169 -483.5q0 -148 -42 -274t-121.5 -221t-202.5 -148.5t-277 -53.5zM715 141q151 0 253.5 70t148.5 186t46 271q0 226 -116 363.5t-332 137.5q-112 0 -198.5 -39.5 t-139.5 -110.5t-80 -165t-27 -207q0 -226 115 -366t330 -140zM604 1710l-180 -262h143l129 131l127 -131h146l-174 262h-191z" />
<glyph unicode="&#xd5;" horiz-adv-x="1421" d="M707 -29q-194 0 -337.5 86.5t-216.5 238t-73 347.5q0 204 73 359t218.5 244t347.5 89q293 0 462 -183.5t169 -483.5q0 -148 -42 -274t-121.5 -221t-202.5 -148.5t-277 -53.5zM715 141q151 0 253.5 70t148.5 186t46 271q0 226 -116 363.5t-332 137.5q-112 0 -198.5 -39.5 t-139.5 -110.5t-80 -165t-27 -207q0 -226 115 -366t330 -140zM877 1683q-34 -63 -68 -63q-37 0 -107 31q-72 32 -106 32q-141 0 -190 -210h114q28 61 70 61q24 0 102 -31q71 -30 111 -30q139 0 182 210h-108z" />
<glyph unicode="&#xd6;" horiz-adv-x="1421" d="M707 -29q-194 0 -337.5 86.5t-216.5 238t-73 347.5q0 204 73 359t218.5 244t347.5 89q293 0 462 -183.5t169 -483.5q0 -148 -42 -274t-121.5 -221t-202.5 -148.5t-277 -53.5zM715 141q151 0 253.5 70t148.5 186t46 271q0 226 -116 363.5t-332 137.5q-112 0 -198.5 -39.5 t-139.5 -110.5t-80 -165t-27 -207q0 -226 115 -366t330 -140zM768 1683h164v-213h-164v213zM459 1470v213h164v-213h-164z" />
<glyph unicode="&#xd7;" horiz-adv-x="1116" d="M213 262l-53 55l342 342l-342 338l55 58l342 -340l340 340l53 -56l-338 -340l340 -342l-53 -55l-342 342z" />
<glyph unicode="&#xd8;" horiz-adv-x="1392" d="M1073 954l-653 -714q114 -99 278 -99q89 0 161.5 26t123.5 72.5t85.5 112t50.5 143t16 167.5q0 171 -62 292zM319 367l646 712q-102 88 -267 88q-144 0 -245 -69t-148 -183.5t-47 -263.5q0 -179 61 -284zM1094 1210l155 166l119 -110l-162 -174q117 -167 117 -424 q0 -147 -41 -271.5t-118.5 -218.5t-199 -147.5t-274.5 -53.5q-266 0 -401 129l-158 -169l-119 104l170 182q-112 169 -112 422q0 147 41.5 272t119 217.5t197.5 144.5t270 52q242 0 396 -121z" />
<glyph unicode="&#xd9;" horiz-adv-x="1257" d="M119 1311h186v-815q0 -355 328 -355q158 0 241.5 94.5t83.5 256.5v819h181v-819q0 -240 -135.5 -380.5t-374.5 -140.5q-244 0 -377 131t-133 373v836zM385 1712h215l121 -264h-133z" />
<glyph unicode="&#xda;" horiz-adv-x="1257" d="M119 1311h186v-815q0 -355 328 -355q158 0 241.5 94.5t83.5 256.5v819h181v-819q0 -240 -135.5 -380.5t-374.5 -140.5q-244 0 -377 131t-133 373v836zM573 1446l121 262h209l-196 -262h-134z" />
<glyph unicode="&#xdb;" horiz-adv-x="1257" d="M119 1311h186v-815q0 -355 328 -355q158 0 241.5 94.5t83.5 256.5v819h181v-819q0 -240 -135.5 -380.5t-374.5 -140.5q-244 0 -377 131t-133 373v836zM561 1708l-180 -262h143l129 131l127 -131h146l-174 262h-191z" />
<glyph unicode="&#xdc;" horiz-adv-x="1257" d="M119 1311h186v-815q0 -355 328 -355q158 0 241.5 94.5t83.5 256.5v819h181v-819q0 -240 -135.5 -380.5t-374.5 -140.5q-244 0 -377 131t-133 373v836zM723 1686h164v-213h-164v213zM414 1473v213h164v-213h-164z" />
<glyph unicode="&#xdd;" horiz-adv-x="1193" d="M510 518l-510 793h213l393 -621l377 621h215l-504 -793v-518h-184v518zM537 1448l120 262h209l-196 -262h-133z" />
<glyph unicode="&#xde;" horiz-adv-x="1200" d="M336 958v-428h289q43 0 75 1.5t67.5 7t60.5 14.5t49 25.5t38.5 39t23.5 55.5t9 75q0 210 -291 210h-321zM158 0v1307h178v-185h323q230 0 334 -71q142 -100 142 -301q0 -126 -58.5 -224.5t-169.5 -136.5q-59 -22 -223 -22h-348v-367h-178z" />
<glyph unicode="&#xdf;" horiz-adv-x="1095" d="M471 -20v143q41 -6 64 -6q136 0 210 70.5t74 201.5q0 78 -25.5 131t-75 81t-108 39t-139.5 11v140q9 0 21 -1.5t16 -1.5q102 0 172 52.5t70 146.5q0 195 -226 195q-158 0 -207 -90q-36 -55 -36 -230v-862h-164v848q0 160 16 235q14 65 54.5 114.5t97 77.5t120 42 t130.5 14q107 0 192.5 -35t139 -110t53.5 -180q0 -92 -54.5 -171.5t-140.5 -97.5q272 -55 272 -344q0 -192 -124 -305t-328 -113q-1 0 -74 5z" />
<glyph unicode="&#xe0;" horiz-adv-x="1030" d="M479 842q-213 0 -213 -183h-162q0 159 105 241.5t278 82.5q176 0 271.5 -70t95.5 -233v-457q0 -102 55 -102q28 0 60 16v-131q-59 -35 -113 -35q-136 0 -154 158q-152 -158 -329 -158q-137 0 -222 78.5t-85 212.5q0 140 112 217q70 50 194.5 74.5t317.5 40.5v57 q0 191 -211 191zM690 346v131q-262 -30 -354 -71q-98 -43 -98 -142q0 -143 176 -143q66 0 127 25.5t103.5 78.5t45.5 121zM238 1346h215l120 -265h-133z" />
<glyph unicode="&#xe1;" horiz-adv-x="1030" d="M479 842q-213 0 -213 -183h-162q0 159 105 241.5t278 82.5q176 0 271.5 -70t95.5 -233v-457q0 -102 55 -102q28 0 60 16v-131q-59 -35 -113 -35q-136 0 -154 158q-152 -158 -329 -158q-137 0 -222 78.5t-85 212.5q0 140 112 217q70 50 194.5 74.5t317.5 40.5v57 q0 191 -211 191zM690 346v131q-262 -30 -354 -71q-98 -43 -98 -142q0 -143 176 -143q66 0 127 25.5t103.5 78.5t45.5 121zM440 1081l121 262h209l-197 -262h-133z" />
<glyph unicode="&#xe2;" horiz-adv-x="1030" d="M479 842q-213 0 -213 -183h-162q0 159 105 241.5t278 82.5q176 0 271.5 -70t95.5 -233v-457q0 -102 55 -102q28 0 60 16v-131q-59 -35 -113 -35q-136 0 -154 158q-152 -158 -329 -158q-137 0 -222 78.5t-85 212.5q0 140 112 217q70 50 194.5 74.5t317.5 40.5v57 q0 191 -211 191zM690 346v131q-262 -30 -354 -71q-98 -43 -98 -142q0 -143 176 -143q66 0 127 25.5t103.5 78.5t45.5 121zM420 1343l-180 -262h143l129 131l127 -131h145l-174 262h-190z" />
<glyph unicode="&#xe3;" horiz-adv-x="1030" d="M479 842q-213 0 -213 -183h-162q0 159 105 241.5t278 82.5q176 0 271.5 -70t95.5 -233v-457q0 -102 55 -102q28 0 60 16v-131q-59 -35 -113 -35q-136 0 -154 158q-152 -158 -329 -158q-137 0 -222 78.5t-85 212.5q0 140 112 217q70 50 194.5 74.5t317.5 40.5v57 q0 191 -211 191zM690 346v131q-262 -30 -354 -71q-98 -43 -98 -142q0 -143 176 -143q66 0 127 25.5t103.5 78.5t45.5 121zM690 1341q-34 -63 -67 -63q-37 0 -107 31q-72 32 -106 32q-142 0 -191 -211h115q29 62 69 62q25 0 103 -31q73 -31 110 -31q140 0 183 211h-109z" />
<glyph unicode="&#xe4;" horiz-adv-x="1030" d="M479 842q-213 0 -213 -183h-162q0 159 105 241.5t278 82.5q176 0 271.5 -70t95.5 -233v-457q0 -102 55 -102q28 0 60 16v-131q-59 -35 -113 -35q-136 0 -154 158q-152 -158 -329 -158q-137 0 -222 78.5t-85 212.5q0 140 112 217q70 50 194.5 74.5t317.5 40.5v57 q0 191 -211 191zM690 346v131q-262 -30 -354 -71q-98 -43 -98 -142q0 -143 176 -143q66 0 127 25.5t103.5 78.5t45.5 121zM586 1341h164v-213h-164v213zM276 1128v213h164v-213h-164z" />
<glyph unicode="&#xe5;" horiz-adv-x="1030" d="M479 842q-213 0 -213 -183h-162q0 159 105 241.5t278 82.5q176 0 271.5 -70t95.5 -233v-457q0 -102 55 -102q28 0 60 16v-131q-59 -35 -113 -35q-136 0 -154 158q-152 -158 -329 -158q-137 0 -222 78.5t-85 212.5q0 140 112 217q70 50 194.5 74.5t317.5 40.5v57 q0 191 -211 191zM690 346v131q-262 -30 -354 -71q-98 -43 -98 -142q0 -143 176 -143q66 0 127 25.5t103.5 78.5t45.5 121zM512 1427q-77 0 -135 -55q-55 -52 -55 -133q0 -78 55 -133q60 -57 135 -57q76 0 133 57q55 55 55 133q0 81 -55 133q-55 55 -133 55zM512 1331 q37 0 63.5 -27t26.5 -65t-26.5 -65t-63.5 -27q-39 0 -66 27q-26 26 -26 65q0 38 27.5 65t64.5 27z" />
<glyph unicode="&#xe6;" horiz-adv-x="1591" d="M858 571h500q-3 113 -69.5 185.5t-176.5 72.5q-220 0 -254 -258zM690 346v131q-246 -40 -262 -45q-172 -52 -172 -162q0 -69 44.5 -108t119.5 -39q107 0 186 67q84 69 84 156zM811 856q134 125 303 125q198 0 307 -130.5t109 -340.5q0 -24 -4 -86h-678q18 -301 264 -301 q182 0 231 190h173q-29 -149 -143.5 -242.5t-268.5 -93.5q-246 0 -356 201q-52 -89 -154 -145t-207 -56q-140 0 -223.5 75t-83.5 208q0 70 27.5 125.5t77.5 92t111.5 58.5t135.5 33l258 37q0 127 -40 177.5t-156 50.5q-193 0 -205 -177h-170q4 162 102 244t275 82 q221 0 315 -127z" />
<glyph unicode="&#xe7;" d="M750 346h168q-9 -164 -119 -269.5t-277 -105.5q-215 0 -328.5 133t-113.5 357q0 153 46 268t147 184.5t249 69.5q165 0 273 -96.5t123 -259.5h-168q-47 207 -228 207q-70 0 -122.5 -27.5t-82.5 -76t-44.5 -108t-14.5 -130.5q0 -367 264 -367q172 0 228 221zM479 0h88 l-84 -121q37 12 68 12q77 0 122.5 -38.5t45.5 -102.5q0 -78 -66 -123q-61 -47 -170 -47q-97 0 -196 41l35 74q72 -27 149 -27q98 0 98 76q0 70 -96 70q-31 0 -74 -17l-37 39z" />
<glyph unicode="&#xe8;" horiz-adv-x="1021" d="M948 504v-78h-690q18 -301 264 -301q198 0 242 188h172q-31 -155 -145.5 -248.5t-272.5 -93.5q-107 0 -191.5 39t-138 108t-81 160.5t-27.5 198.5q0 145 50 258t153.5 180.5t246.5 67.5q108 0 189.5 -36.5t130.5 -102t73.5 -151t24.5 -189.5zM526 834q-237 0 -264 -261 h518q-9 123 -75.5 192t-178.5 69zM299 1346h215l121 -265h-133z" />
<glyph unicode="&#xe9;" horiz-adv-x="1021" d="M948 504v-78h-690q18 -301 264 -301q198 0 242 188h172q-31 -155 -145.5 -248.5t-272.5 -93.5q-107 0 -191.5 39t-138 108t-81 160.5t-27.5 198.5q0 145 50 258t153.5 180.5t246.5 67.5q108 0 189.5 -36.5t130.5 -102t73.5 -151t24.5 -189.5zM526 834q-237 0 -264 -261 h518q-9 123 -75.5 192t-178.5 69zM463 1079l121 262h209l-197 -262h-133z" />
<glyph unicode="&#xea;" horiz-adv-x="1021" d="M948 504v-78h-690q18 -301 264 -301q198 0 242 188h172q-31 -155 -145.5 -248.5t-272.5 -93.5q-107 0 -191.5 39t-138 108t-81 160.5t-27.5 198.5q0 145 50 258t153.5 180.5t246.5 67.5q108 0 189.5 -36.5t130.5 -102t73.5 -151t24.5 -189.5zM526 834q-237 0 -264 -261 h518q-9 123 -75.5 192t-178.5 69zM418 1341l-180 -262h143l129 131l127 -131h145l-174 262h-190z" />
<glyph unicode="&#xeb;" horiz-adv-x="1021" d="M948 504v-78h-690q18 -301 264 -301q198 0 242 188h172q-31 -155 -145.5 -248.5t-272.5 -93.5q-107 0 -191.5 39t-138 108t-81 160.5t-27.5 198.5q0 145 50 258t153.5 180.5t246.5 67.5q108 0 189.5 -36.5t130.5 -102t73.5 -151t24.5 -189.5zM526 834q-237 0 -264 -261 h518q-9 123 -75.5 192t-178.5 69zM584 1343h164v-213h-164v213zM274 1130v213h164v-213h-164z" />
<glyph unicode="&#xec;" horiz-adv-x="569" d="M264 954h164v-954h-164v954zM121 1346h215l121 -265h-133z" />
<glyph unicode="&#xed;" horiz-adv-x="497" d="M166 954h164v-954h-164v954zM166 1081l121 262h209l-197 -262h-133z" />
<glyph unicode="&#xee;" horiz-adv-x="497" d="M166 954h164v-954h-164v954zM162 1343l-180 -262h143l129 131l127 -131h145l-174 262h-190z" />
<glyph unicode="&#xef;" horiz-adv-x="497" d="M166 954h164v-954h-164v954zM322 1343h163v-213h-163v213zM12 1130v213h164v-213h-164z" />
<glyph unicode="&#xf0;" horiz-adv-x="1005" d="M240 487q0 -174 68 -269t196 -95q262 0 262 362q0 349 -256 349q-130 0 -200 -91t-70 -256zM80 1247l67 84q132 -18 256 -63l250 155l49 -82l-192 -116q201 -101 319 -295q115 -187 115 -436q0 -150 -46.5 -264t-148.5 -183.5t-251 -69.5q-106 0 -189 37.5t-135.5 104 t-80 155.5t-27.5 195q0 105 26 196.5t77.5 163t135 113t189.5 41.5q30 0 114 -33q-79 104 -217 185l-244 -146l-51 78l193 119q-94 37 -209 61z" />
<glyph unicode="&#xf1;" horiz-adv-x="1005" d="M123 0v956h164v-122q64 81 129.5 115t161.5 34q95 0 174 -45t110 -127q21 -79 21 -201v-610h-164v578q0 132 -40.5 194t-152.5 62q-75 0 -137.5 -42.5t-87.5 -111.5q-14 -41 -14 -176v-504h-164zM709 1341q-34 -63 -68 -63q-36 0 -106 31q-72 32 -107 32 q-141 0 -190 -211h114q29 62 70 62q25 0 102 -31q73 -31 111 -31q139 0 182 211h-108z" />
<glyph unicode="&#xf2;" horiz-adv-x="1013" d="M76 477q0 110 26 200.5t78 159.5t136.5 107.5t193.5 38.5q143 0 242.5 -67.5t145.5 -179.5t46 -259q0 -107 -27.5 -198t-80 -160t-136.5 -108.5t-190 -39.5q-211 0 -322.5 139.5t-111.5 366.5zM510 125q123 0 189.5 94.5t66.5 267.5q0 69 -14.5 129t-43.5 110t-80 79 t-118 29q-124 0 -191 -93.5t-67 -263.5q0 -167 67 -259.5t191 -92.5zM236 1341h215l120 -264h-133z" />
<glyph unicode="&#xf3;" horiz-adv-x="1013" d="M76 477q0 110 26 200.5t78 159.5t136.5 107.5t193.5 38.5q143 0 242.5 -67.5t145.5 -179.5t46 -259q0 -107 -27.5 -198t-80 -160t-136.5 -108.5t-190 -39.5q-211 0 -322.5 139.5t-111.5 366.5zM510 125q123 0 189.5 94.5t66.5 267.5q0 69 -14.5 129t-43.5 110t-80 79 t-118 29q-124 0 -191 -93.5t-67 -263.5q0 -167 67 -259.5t191 -92.5zM446 1079l121 262h209l-196 -262h-134z" />
<glyph unicode="&#xf4;" horiz-adv-x="1013" d="M76 477q0 110 26 200.5t78 159.5t136.5 107.5t193.5 38.5q143 0 242.5 -67.5t145.5 -179.5t46 -259q0 -107 -27.5 -198t-80 -160t-136.5 -108.5t-190 -39.5q-211 0 -322.5 139.5t-111.5 366.5zM510 125q123 0 189.5 94.5t66.5 267.5q0 69 -14.5 129t-43.5 110t-80 79 t-118 29q-124 0 -191 -93.5t-67 -263.5q0 -167 67 -259.5t191 -92.5zM416 1341l-180 -262h143l129 131l127 -131h145l-174 262h-190z" />
<glyph unicode="&#xf5;" horiz-adv-x="1013" d="M76 477q0 110 26 200.5t78 159.5t136.5 107.5t193.5 38.5q143 0 242.5 -67.5t145.5 -179.5t46 -259q0 -107 -27.5 -198t-80 -160t-136.5 -108.5t-190 -39.5q-211 0 -322.5 139.5t-111.5 366.5zM510 125q123 0 189.5 94.5t66.5 267.5q0 69 -14.5 129t-43.5 110t-80 79 t-118 29q-124 0 -191 -93.5t-67 -263.5q0 -167 67 -259.5t191 -92.5zM688 1341q-34 -63 -67 -63q-37 0 -107 31q-72 32 -106 32q-142 0 -191 -211h115q29 62 69 62q26 0 103 -31q73 -31 110 -31q140 0 183 211h-109z" />
<glyph unicode="&#xf6;" horiz-adv-x="1013" d="M76 477q0 110 26 200.5t78 159.5t136.5 107.5t193.5 38.5q143 0 242.5 -67.5t145.5 -179.5t46 -259q0 -107 -27.5 -198t-80 -160t-136.5 -108.5t-190 -39.5q-211 0 -322.5 139.5t-111.5 366.5zM510 125q123 0 189.5 94.5t66.5 267.5q0 69 -14.5 129t-43.5 110t-80 79 t-118 29q-124 0 -191 -93.5t-67 -263.5q0 -167 67 -259.5t191 -92.5zM582 1343h163v-213h-163v213zM272 1130v213h164v-213h-164z" />
<glyph unicode="&#xf7;" horiz-adv-x="997" d="M406 801v188h182v-188h-182zM406 266v187h182v-187h-182zM930 561h-864v135h864v-135z" />
<glyph unicode="&#xf8;" horiz-adv-x="1095" d="M788 651l-2 4l-399 -475q69 -57 158 -57q266 0 266 364q0 101 -18 154q-2 0 -5 10zM307 309l395 473q-52 52 -151 52q-128 0 -199 -91.5t-71 -255.5q0 -93 26 -178zM815 899l135 158l111 -94l-150 -172q76 -121 76 -312q0 -143 -51 -255.5t-154 -179.5t-245 -67 q-154 0 -267 82l-137 -153l-108 94l151 170q-70 118 -70 293q0 152 48 266.5t151.5 183.5t251.5 70q138 0 258 -84z" />
<glyph unicode="&#xf9;" horiz-adv-x="1001" d="M121 956h166v-608q0 -125 43 -174q40 -49 141 -49q127 0 197 104q57 85 57 242v485h164v-956h-164v150q-77 -179 -293 -179q-311 0 -311 371v614zM219 1341h215l121 -264h-133z" />
<glyph unicode="&#xfa;" horiz-adv-x="1001" d="M121 956h166v-608q0 -125 43 -174q40 -49 141 -49q127 0 197 104q57 85 57 242v485h164v-956h-164v150q-77 -179 -293 -179q-311 0 -311 371v614zM442 1079l121 262h209l-197 -262h-133z" />
<glyph unicode="&#xfb;" horiz-adv-x="1001" d="M121 956h166v-608q0 -125 43 -174q40 -49 141 -49q127 0 197 104q57 85 57 242v485h164v-956h-164v150q-77 -179 -293 -179q-311 0 -311 371v614zM412 1341l-181 -262h144l129 131l127 -131h145l-174 262h-190z" />
<glyph unicode="&#xfc;" horiz-adv-x="1001" d="M121 956h166v-608q0 -125 43 -174q40 -49 141 -49q127 0 197 104q57 85 57 242v485h164v-956h-164v150q-77 -179 -293 -179q-311 0 -311 371v614zM578 1343h163v-213h-163v213zM268 1130v213h164v-213h-164z" />
<glyph unicode="&#xfd;" horiz-adv-x="897" d="M197 956l256 -757l247 757h181l-381 -1062q-54 -148 -88 -191q-65 -96 -172 -96q-75 0 -138 16v158q61 -25 99 -25q57 0 84 41q26 37 80 183l-355 976h187zM389 1081l121 262h209l-197 -262h-133z" />
<glyph unicode="&#xfe;" horiz-adv-x="1097" d="M121 -369v1678h166v-465q63 76 124 107.5t154 31.5q98 0 171.5 -40.5t116 -110.5t63 -155.5t20.5 -184.5q0 -103 -22.5 -194t-67.5 -165.5t-120 -118t-171 -43.5q-154 0 -268 129v-469h-166zM281 477q0 -69 12 -128.5t38.5 -111.5t75 -82t115.5 -30q66 0 115 30.5 t75.5 82.5t39 111.5t12.5 127.5q0 71 -12.5 132t-39.5 113t-75.5 82t-114.5 30q-114 0 -177.5 -94.5t-63.5 -262.5z" />
<glyph unicode="&#xff;" horiz-adv-x="892" d="M197 956l256 -757l247 757h181l-381 -1062q-54 -148 -88 -191q-65 -96 -172 -96q-75 0 -138 16v158q61 -25 99 -25q57 0 84 41q26 37 80 183l-355 976h187zM571 1343h164v-213h-164v213zM262 1130v213h164v-213h-164z" />
<glyph unicode="&#x100;" horiz-adv-x="1167" d="M348 1411h490v139h-490v-139zM389 537l201 575l194 -575h-395zM504 1311l-504 -1311h195l137 389h504l133 -389h198l-473 1311h-190z" />
<glyph unicode="&#x101;" horiz-adv-x="1028" d="M250 1077h489v140h-489v-140zM479 842q-213 0 -213 -183h-162q0 159 105 241.5t278 82.5q176 0 271.5 -70t95.5 -233v-457q0 -102 55 -102q28 0 60 16v-131q-59 -35 -113 -35q-136 0 -154 158q-152 -158 -329 -158q-137 0 -222 78.5t-85 212.5q0 140 112 217 q70 50 194.5 74.5t317.5 40.5v57q0 191 -211 191zM690 346v131q-262 -30 -354 -71q-98 -43 -98 -142q0 -143 176 -143q66 0 127 25.5t103.5 78.5t45.5 121z" />
<glyph unicode="&#x102;" horiz-adv-x="1167" d="M389 537l201 575l194 -575h-395zM504 1311l-504 -1311h195l137 389h504l133 -389h198l-473 1311h-190zM317 1729q18 -269 281 -269q120 0 186.5 68t75.5 201h-112q-21 -138 -160 -138q-134 0 -158 138h-113z" />
<glyph unicode="&#x103;" horiz-adv-x="1028" d="M479 842q-213 0 -213 -183h-162q0 159 105 241.5t278 82.5q176 0 271.5 -70t95.5 -233v-457q0 -102 55 -102q28 0 60 16v-131q-59 -35 -113 -35q-136 0 -154 158q-152 -158 -329 -158q-137 0 -222 78.5t-85 212.5q0 140 112 217q70 50 194.5 74.5t317.5 40.5v57 q0 191 -211 191zM690 346v131q-262 -30 -354 -71q-98 -43 -98 -142q0 -143 176 -143q66 0 127 25.5t103.5 78.5t45.5 121zM211 1343q18 -268 281 -268q244 0 262 268h-113q-21 -137 -160 -137q-133 0 -157 137h-113z" />
<glyph unicode="&#x104;" horiz-adv-x="1169" d="M389 537l201 575l194 -575h-395zM504 1311l-504 -1311h195l137 389h504l133 -389h198l-473 1311h-190zM1018 0q-154 -80 -154 -190q0 -75 58 -127q56 -50 143 -50q68 0 129 25v123q-38 -17 -90 -17q-103 0 -103 86q0 81 142 150h-125z" />
<glyph unicode="&#x105;" horiz-adv-x="1028" d="M479 842q-213 0 -213 -183h-162q0 159 105 241.5t278 82.5q176 0 271.5 -70t95.5 -233v-457q0 -102 55 -102q28 0 60 16v-131q-59 -35 -113 -35q-136 0 -154 158q-152 -158 -329 -158q-137 0 -222 78.5t-85 212.5q0 140 112 217q70 50 194.5 74.5t317.5 40.5v57 q0 191 -211 191zM690 346v131q-262 -30 -354 -71q-98 -43 -98 -142q0 -143 176 -143q66 0 127 25.5t103.5 78.5t45.5 121zM791 0q-154 -80 -154 -190q0 -76 57 -127q56 -50 144 -50q68 0 129 25v123q-38 -17 -90 -17q-103 0 -103 86q0 81 141 150h-124z" />
<glyph unicode="&#x106;" horiz-adv-x="1294" d="M1051 901h180q-10 109 -56.5 193.5t-120.5 136t-166.5 78t-199.5 26.5q-189 0 -327.5 -89t-209.5 -245t-71 -358q0 -135 34.5 -252.5t104.5 -213t188.5 -151t274.5 -55.5q223 0 376 145t173 371h-180q-26 -165 -125 -255.5t-252 -90.5q-134 0 -227 67.5t-136 180.5 t-43 262q0 109 25 201t75 164t132.5 112.5t189.5 40.5q296 0 361 -268zM528 1470l121 263h209l-196 -263h-134z" />
<glyph unicode="&#x107;" horiz-adv-x="993" d="M750 346h168q-9 -164 -119 -269.5t-277 -105.5q-215 0 -328.5 133t-113.5 357q0 153 46 268t147 184.5t249 69.5q165 0 273 -96.5t123 -259.5h-168q-47 207 -228 207q-70 0 -122.5 -27.5t-82.5 -76t-44.5 -108t-14.5 -130.5q0 -367 264 -367q172 0 228 221zM403 1083 l121 263h209l-196 -263h-134z" />
<glyph unicode="&#x108;" horiz-adv-x="1294" d="M1051 901h180q-10 109 -56.5 193.5t-120.5 136t-166.5 78t-199.5 26.5q-189 0 -327.5 -89t-209.5 -245t-71 -358q0 -135 34.5 -252.5t104.5 -213t188.5 -151t274.5 -55.5q223 0 376 145t173 371h-180q-26 -165 -125 -255.5t-252 -90.5q-134 0 -227 67.5t-136 180.5 t-43 262q0 109 25 201t75 164t132.5 112.5t189.5 40.5q296 0 361 -268zM616 1737l-180 -262h144l129 131l127 -131h145l-174 262h-191z" />
<glyph unicode="&#x109;" horiz-adv-x="993" d="M750 346h168q-9 -164 -119 -269.5t-277 -105.5q-215 0 -328.5 133t-113.5 357q0 153 46 268t147 184.5t249 69.5q165 0 273 -96.5t123 -259.5h-168q-47 207 -228 207q-70 0 -122.5 -27.5t-82.5 -76t-44.5 -108t-14.5 -130.5q0 -367 264 -367q172 0 228 221zM387 1346 l-180 -263h143l129 131l127 -131h146l-174 263h-191z" />
<glyph unicode="&#x10a;" horiz-adv-x="1296" d="M1051 901h180q-10 109 -56.5 193.5t-120.5 136t-166.5 78t-199.5 26.5q-189 0 -327.5 -89t-209.5 -245t-71 -358q0 -135 34.5 -252.5t104.5 -213t188.5 -151t274.5 -55.5q223 0 376 145t173 371h-180q-26 -165 -125 -255.5t-252 -90.5q-134 0 -227 67.5t-136 180.5 t-43 262q0 109 25 201t75 164t132.5 112.5t189.5 40.5q296 0 361 -268zM584 1702v-213h168v213h-168z" />
<glyph unicode="&#x10b;" horiz-adv-x="993" d="M750 346h168q-9 -164 -119 -269.5t-277 -105.5q-215 0 -328.5 133t-113.5 357q0 153 46 268t147 184.5t249 69.5q165 0 273 -96.5t123 -259.5h-168q-47 207 -228 207q-70 0 -122.5 -27.5t-82.5 -76t-44.5 -108t-14.5 -130.5q0 -367 264 -367q172 0 228 221zM432 1343 v-213h168v213h-168z" />
<glyph unicode="&#x10c;" horiz-adv-x="1294" d="M1051 901h180q-10 109 -56.5 193.5t-120.5 136t-166.5 78t-199.5 26.5q-189 0 -327.5 -89t-209.5 -245t-71 -358q0 -135 34.5 -252.5t104.5 -213t188.5 -151t274.5 -55.5q223 0 376 145t173 371h-180q-26 -165 -125 -255.5t-252 -90.5q-134 0 -227 67.5t-136 180.5 t-43 262q0 109 25 201t75 164t132.5 112.5t189.5 40.5q296 0 361 -268zM793 1477l176 262h-142l-129 -131l-127 131h-147l178 -262h191z" />
<glyph unicode="&#x10d;" horiz-adv-x="993" d="M750 346h168q-9 -164 -119 -269.5t-277 -105.5q-215 0 -328.5 133t-113.5 357q0 153 46 268t147 184.5t249 69.5q165 0 273 -96.5t123 -259.5h-168q-47 207 -228 207q-70 0 -122.5 -27.5t-82.5 -76t-44.5 -108t-14.5 -130.5q0 -367 264 -367q172 0 228 221zM598 1083 l176 263h-141l-129 -132l-127 132h-148l179 -263h190z" />
<glyph unicode="&#x10e;" horiz-adv-x="1265" d="M293 1147h258q88 0 158.5 -17t118.5 -49.5t81.5 -74t52.5 -97t27 -112.5t8 -125q0 -263 -102.5 -385.5t-333.5 -122.5h-268v983zM113 0h456q188 0 311 54t207 200q99 170 99 414q0 386 -223 546q-48 34 -100.5 55.5t-111.5 29.5t-97 10t-99 2h-442v-1311zM723 1477 l176 262h-141l-129 -131l-127 131h-148l178 -262h191z" />
<glyph unicode="&#x10f;" horiz-adv-x="1265" d="M498 125q235 0 235 352q0 357 -235 357q-244 0 -244 -357q0 -352 244 -352zM733 862v449h164v-1311h-164v125q-66 -87 -122.5 -120.5t-153.5 -33.5q-76 0 -139.5 27.5t-107 74t-74 109.5t-44.5 133.5t-14 145.5q0 82 14.5 157.5t46 142t77 116t111 78t144.5 28.5 q162 0 262 -121zM1008 1098v209h196v-191q0 -239 -196 -282v96q47 14 67 51q21 35 27 117h-94z" />
<glyph unicode="&#x110;" horiz-adv-x="1265" d="M2 596v164h111v551h442q151 0 240 -18.5t168 -78.5q223 -168 223 -546q0 -244 -99 -414q-83 -145 -206.5 -199.5t-311.5 -54.5h-456v596h-111zM293 1147v-387h305v-164h-305v-432h268q173 0 262 59q174 116 174 449q0 292 -163 409q-94 66 -283 66h-258z" />
<glyph unicode="&#x111;" horiz-adv-x="1036" d="M733 862v221h-264v113h264v115h164v-115h119v-113h-119v-1083h-164v125q-50 -62 -82 -91t-79 -46t-115 -17q-76 0 -139.5 27.5t-107 74t-74 109.5t-44.5 133.5t-14 145.5q0 80 14 154.5t45 141.5t76 117t111.5 79.5t146.5 29.5q164 0 262 -121zM498 125q235 0 235 352 q0 357 -235 357q-244 0 -244 -357q0 -352 244 -352z" />
<glyph unicode="&#x112;" horiz-adv-x="1161" d="M324 1411h489v139h-489v-139zM121 1311v-1311h940v164h-760v432h705v164h-705v387h760v164h-940z" />
<glyph unicode="&#x113;" horiz-adv-x="1024" d="M270 1075h490v139h-490v-139zM948 504v-78h-690q18 -301 264 -301q198 0 242 188h172q-31 -155 -145.5 -248.5t-272.5 -93.5q-107 0 -191.5 39t-138 108t-81 160.5t-27.5 198.5q0 145 50 258t153.5 180.5t246.5 67.5q108 0 189.5 -36.5t130.5 -102t73.5 -151t24.5 -189.5 zM526 834q-237 0 -264 -261h518q-9 123 -75.5 192t-178.5 69z" />
<glyph unicode="&#x114;" horiz-adv-x="1161" d="M121 1311v-1311h940v164h-760v432h705v164h-705v387h760v164h-940zM303 1741q18 -268 281 -268q244 0 262 268h-113q-21 -137 -160 -137q-133 0 -157 137h-113z" />
<glyph unicode="&#x115;" horiz-adv-x="1024" d="M948 504v-78h-690q18 -301 264 -301q198 0 242 188h172q-31 -155 -145.5 -248.5t-272.5 -93.5q-107 0 -191.5 39t-138 108t-81 160.5t-27.5 198.5q0 145 50 258t153.5 180.5t246.5 67.5q108 0 189.5 -36.5t130.5 -102t73.5 -151t24.5 -189.5zM526 834q-237 0 -264 -261 h518q-9 123 -75.5 192t-178.5 69zM238 1343q18 -268 280 -268q244 0 262 268h-112q-21 -137 -160 -137q-134 0 -158 137h-112z" />
<glyph unicode="&#x116;" horiz-adv-x="1161" d="M121 1311v-1311h940v164h-760v432h705v164h-705v387h760v164h-940zM489 1702v-213h168v213h-168z" />
<glyph unicode="&#x117;" horiz-adv-x="1024" d="M948 504v-78h-690q18 -301 264 -301q198 0 242 188h172q-31 -155 -145.5 -248.5t-272.5 -93.5q-107 0 -191.5 39t-138 108t-81 160.5t-27.5 198.5q0 145 50 258t153.5 180.5t246.5 67.5q108 0 189.5 -36.5t130.5 -102t73.5 -151t24.5 -189.5zM526 834q-237 0 -264 -261 h518q-9 123 -75.5 192t-178.5 69zM432 1343v-213h168v213h-168z" />
<glyph unicode="&#x118;" horiz-adv-x="1134" d="M121 1311v-1311h940v164h-760v432h705v164h-705v387h760v164h-940zM893 0q-154 -80 -154 -190q0 -75 58 -127q56 -50 143 -50q68 0 129 25v123q-38 -17 -90 -17q-102 0 -102 86q0 81 141 150h-125z" />
<glyph unicode="&#x119;" horiz-adv-x="1024" d="M948 504v-78h-690q18 -301 264 -301q198 0 242 188h172q-31 -155 -145.5 -248.5t-272.5 -93.5q-107 0 -191.5 39t-138 108t-81 160.5t-27.5 198.5q0 145 50 258t153.5 180.5t246.5 67.5q108 0 189.5 -36.5t130.5 -102t73.5 -151t24.5 -189.5zM526 834q-237 0 -264 -261 h518q-9 123 -75.5 192t-178.5 69zM561 0q-153 -80 -153 -190q0 -76 57 -127q56 -50 143 -50q68 0 129 25v123q-38 -17 -90 -17q-102 0 -102 86q0 81 141 150h-125z" />
<glyph unicode="&#x11a;" horiz-adv-x="1161" d="M121 1311v-1311h940v164h-760v432h705v164h-705v387h760v164h-940zM664 1473l176 262h-142l-129 -131l-127 131h-147l178 -262h191z" />
<glyph unicode="&#x11b;" horiz-adv-x="1024" d="M948 504v-78h-690q18 -301 264 -301q198 0 242 188h172q-31 -155 -145.5 -248.5t-272.5 -93.5q-107 0 -191.5 39t-138 108t-81 160.5t-27.5 198.5q0 145 50 258t153.5 180.5t246.5 67.5q108 0 189.5 -36.5t130.5 -102t73.5 -151t24.5 -189.5zM526 834q-237 0 -264 -261 h518q-9 123 -75.5 192t-178.5 69zM631 1079l176 262h-141l-129 -131l-127 131h-148l178 -262h191z" />
<glyph unicode="&#x11c;" horiz-adv-x="1366" d="M1059 907h184q-83 428 -538 428q-194 0 -336.5 -91.5t-213.5 -245.5t-71 -351q0 -162 46 -291.5t128 -213t191.5 -127.5t238.5 -44q134 0 225.5 45.5t186.5 151.5l45 -162h117v696h-572v-147h406q0 -186 -108 -300t-288 -114q-107 0 -190.5 39.5t-135 109.5t-78 161.5 t-26.5 199.5q0 87 16 164t50 142.5t84 112t121.5 73t158.5 26.5q288 0 359 -262zM618 1724l-180 -262h144l129 131l127 -131h145l-174 262h-191z" />
<glyph unicode="&#x11d;" horiz-adv-x="1017" d="M733 827v129h164v-811q0 -104 -11.5 -184t-39.5 -148.5t-75 -112.5t-119.5 -68.5t-170.5 -24.5q-170 0 -257 69.5t-107 223.5h164q20 -79 64 -111.5t132 -32.5q136 0 196 94.5t60 301.5q-119 -152 -280 -152q-96 0 -169 36t-117 100t-65.5 145.5t-21.5 179.5 q0 105 22 196.5t66 165.5t118.5 117t170.5 43q169 0 276 -156zM496 150q83 0 138 48t77 118.5t22 160.5q0 65 -13 125.5t-39.5 114t-74.5 85.5t-110 32q-65 0 -113 -31.5t-74 -84.5t-38.5 -113.5t-12.5 -127.5q0 -157 62.5 -242t175.5 -85zM399 1350l-180 -263h143l130 132 l126 -132h146l-174 263h-191z" />
<glyph unicode="&#x11e;" horiz-adv-x="1366" d="M1059 907h184q-83 428 -538 428q-194 0 -336.5 -91.5t-213.5 -245.5t-71 -351q0 -162 46 -291.5t128 -213t191.5 -127.5t238.5 -44q134 0 225.5 45.5t186.5 151.5l45 -162h117v696h-572v-147h406q0 -186 -108 -300t-288 -114q-107 0 -190.5 39.5t-135 109.5t-78 161.5 t-26.5 199.5q0 87 16 164t50 142.5t84 112t121.5 73t158.5 26.5q288 0 359 -262zM399 1729q18 -269 281 -269q120 0 186.5 68t75.5 201h-113q-21 -138 -159 -138q-134 0 -158 138h-113z" />
<glyph unicode="&#x11f;" horiz-adv-x="1017" d="M733 827v129h164v-811q0 -104 -11.5 -184t-39.5 -148.5t-75 -112.5t-119.5 -68.5t-170.5 -24.5q-170 0 -257 69.5t-107 223.5h164q20 -79 64 -111.5t132 -32.5q136 0 196 94.5t60 301.5q-119 -152 -280 -152q-96 0 -169 36t-117 100t-65.5 145.5t-21.5 179.5 q0 105 22 196.5t66 165.5t118.5 117t170.5 43q169 0 276 -156zM496 150q83 0 138 48t77 118.5t22 160.5q0 65 -13 125.5t-39.5 114t-74.5 85.5t-110 32q-65 0 -113 -31.5t-74 -84.5t-38.5 -113.5t-12.5 -127.5q0 -157 62.5 -242t175.5 -85zM231 1352q18 -269 281 -269 q120 0 186.5 68t75.5 201h-112q-21 -138 -160 -138q-134 0 -158 138h-113z" />
<glyph unicode="&#x120;" horiz-adv-x="1366" d="M1059 907h184q-83 428 -538 428q-194 0 -336.5 -91.5t-213.5 -245.5t-71 -351q0 -162 46 -291.5t128 -213t191.5 -127.5t238.5 -44q134 0 225.5 45.5t186.5 151.5l45 -162h117v696h-572v-147h406q0 -186 -108 -300t-288 -114q-107 0 -190.5 39.5t-135 109.5t-78 161.5 t-26.5 199.5q0 87 16 164t50 142.5t84 112t121.5 73t158.5 26.5q288 0 359 -262zM590 1702v-213h168v213h-168z" />
<glyph unicode="&#x121;" horiz-adv-x="1017" d="M733 827v129h164v-811q0 -104 -11.5 -184t-39.5 -148.5t-75 -112.5t-119.5 -68.5t-170.5 -24.5q-170 0 -257 69.5t-107 223.5h164q20 -79 64 -111.5t132 -32.5q136 0 196 94.5t60 301.5q-119 -152 -280 -152q-96 0 -169 36t-117 100t-65.5 145.5t-21.5 179.5 q0 105 22 196.5t66 165.5t118.5 117t170.5 43q169 0 276 -156zM496 150q83 0 138 48t77 118.5t22 160.5q0 65 -13 125.5t-39.5 114t-74.5 85.5t-110 32q-65 0 -113 -31.5t-74 -84.5t-38.5 -113.5t-12.5 -127.5q0 -157 62.5 -242t175.5 -85zM381 1343v-213h168v213h-168z" />
<glyph unicode="&#x122;" horiz-adv-x="1366" d="M1059 907h184q-83 428 -538 428q-194 0 -336.5 -91.5t-213.5 -245.5t-71 -351q0 -162 46 -291.5t128 -213t191.5 -127.5t238.5 -44q134 0 225.5 45.5t186.5 151.5l45 -162h117v696h-572v-147h406q0 -186 -108 -300t-288 -114q-107 0 -190.5 39.5t-135 109.5t-78 161.5 t-26.5 199.5q0 87 16 164t50 142.5t84 112t121.5 73t158.5 26.5q288 0 359 -262zM592 -94v-207h94q-6 -81 -27 -115q-17 -36 -67 -53v-94q196 37 196 282v187h-196z" />
<glyph unicode="&#x123;" horiz-adv-x="1017" d="M733 827v129h164v-811q0 -104 -11.5 -184t-39.5 -148.5t-75 -112.5t-119.5 -68.5t-170.5 -24.5q-170 0 -257 69.5t-107 223.5h164q20 -79 64 -111.5t132 -32.5q136 0 196 94.5t60 301.5q-119 -152 -280 -152q-96 0 -169 36t-117 100t-65.5 145.5t-21.5 179.5 q0 105 22 196.5t66 165.5t118.5 117t170.5 43q169 0 276 -156zM496 150q83 0 138 48t77 118.5t22 160.5q0 65 -13 125.5t-39.5 114t-74.5 85.5t-110 32q-65 0 -113 -31.5t-74 -84.5t-38.5 -113.5t-12.5 -127.5q0 -157 62.5 -242t175.5 -85zM580 1128v207h-95q6 81 27 115 q17 36 68 53v94q-197 -38 -197 -282v-187h197z" />
<glyph unicode="&#x124;" horiz-adv-x="1226" d="M307 1311h-186v-1311h186v606h613v-606h186v1311h-186v-539h-613v539zM541 1726l-181 -262h144l129 131l127 -131h145l-174 262h-190z" />
<glyph unicode="&#x125;" horiz-adv-x="1003" d="M121 1311h166v-457q123 129 286 129q310 0 310 -352v-631h-164v590q0 124 -38 184t-144 60q-60 0 -105.5 -20.5t-72 -52.5t-43.5 -76.5t-23 -86.5t-6 -88v-510h-166v1311zM115 1737l-181 -262h144l129 131l127 -131h145l-174 262h-190z" />
<glyph unicode="&#x126;" horiz-adv-x="1226" d="M41 1167h80v144h186v-144h613v144h186v-144h65v-139h-65v-1028h-186v606h-613v-606h-186v1028h-80v139zM920 1028h-613v-256h613v256z" />
<glyph unicode="&#x127;" horiz-adv-x="1005" d="M45 1155h76v156h166v-156h254v-111h-254v-190q123 129 286 129q310 0 310 -352v-631h-164v590q0 126 -37 185t-145 59q-122 0 -201 -101q-49 -67 -49 -223v-510h-166v1044h-76v111z" />
<glyph unicode="&#x128;" horiz-adv-x="428" d="M121 1311h186v-1311h-186v1311zM399 1724q-34 -63 -67 -63q-37 0 -107 31q-72 32 -106 32q-142 0 -191 -211h115q29 62 70 62q25 0 102 -31q73 -31 111 -31q139 0 182 211h-109z" />
<glyph unicode="&#x129;" horiz-adv-x="487" d="M166 954h164v-954h-164v954zM424 1343q-34 -63 -68 -63q-36 0 -106 31q-72 32 -107 32q-141 0 -190 -210h115q28 61 69 61q25 0 103 -31q70 -30 110 -30q139 0 182 210h-108z" />
<glyph unicode="&#x12a;" horiz-adv-x="438" d="M-29 1409h490v139h-490v-139zM121 1311h186v-1311h-186v1311z" />
<glyph unicode="&#x12b;" horiz-adv-x="495" d="M4 1079h490v140h-490v-140zM166 954h164v-954h-164v954z" />
<glyph unicode="&#x12c;" horiz-adv-x="448" d="M121 1311h186v-1311h-186v1311zM-51 1743q18 -268 280 -268q121 0 187.5 67.5t75.5 200.5h-113q-21 -137 -160 -137q-134 0 -158 137h-112z" />
<glyph unicode="&#x12d;" horiz-adv-x="481" d="M166 954h164v-954h-164v954zM-27 1343q18 -268 281 -268q244 0 262 268h-113q-21 -137 -159 -137q-134 0 -158 137h-113z" />
<glyph unicode="&#x12e;" horiz-adv-x="428" d="M121 1311h186v-1311h-186v1311zM154 0q-154 -80 -154 -190q0 -76 57 -127q56 -50 144 -50q68 0 129 25v123q-38 -17 -90 -17q-103 0 -103 86q0 81 142 150h-125z" />
<glyph unicode="&#x12f;" horiz-adv-x="399" d="M287 1120h-166v191h166v-191zM121 956h166v-956h-166v956zM154 0q-154 -80 -154 -190q0 -76 57 -127q56 -50 144 -50q68 0 129 25v123q-38 -17 -90 -17q-103 0 -103 86q0 81 142 150h-125z" />
<glyph unicode="&#x130;" horiz-adv-x="423" d="M121 1311h186v-1311h-186v1311zM129 1700v-213h168v213h-168z" />
<glyph unicode="&#x131;" horiz-adv-x="497" d="M166 954h164v-954h-164v954z" />
<glyph unicode="&#x132;" horiz-adv-x="1327" d="M121 1311h186v-1311h-186v1311zM459 438h178q0 -55 3 -92.5t14 -79.5t30.5 -67t55 -41.5t85.5 -16.5q47 0 81 14t54 36t31.5 59t15 74.5t3.5 89.5v897h182v-897q0 -91 -17.5 -163.5t-42.5 -118t-63.5 -78.5t-69.5 -48.5t-72.5 -24t-61 -9.5t-44.5 -1q-143 0 -238.5 76.5 t-115.5 210.5q-8 62 -8 160v20z" />
<glyph unicode="&#x133;" horiz-adv-x="798" d="M287 1120h-166v191h166v-191zM121 956h166v-956h-166v956zM487 1120v191h166v-191h-166zM334 -385v152q42 -11 63 -11q26 1 43.5 9.5t26.5 20.5t13.5 35.5t5.5 41t1 49.5v1044h166v-1067q0 -282 -221 -282q-48 0 -98 8z" />
<glyph unicode="&#x134;" horiz-adv-x="903" d="M35 438h178q0 -55 3 -92.5t14 -79.5t30.5 -67t55 -41.5t85.5 -16.5q47 0 81 14t54 36t31.5 59t15 74.5t3.5 89.5v897h182v-897q0 -91 -17.5 -163.5t-42.5 -118t-63.5 -78.5t-69.5 -48.5t-72.5 -24t-61 -9.5t-44.5 -1q-143 0 -238.5 76.5t-115.5 210.5q-8 62 -8 160v20z M578 1765l-181 -262h144l129 131l127 -131h145l-174 262h-190z" />
<glyph unicode="&#x135;" horiz-adv-x="452" d="M-12 -385v152q42 -11 63 -11q26 1 43.5 9.5t26.5 20.5t13.5 35.5t5.5 41t1 49.5v1044h166v-1067q0 -282 -221 -282q-48 0 -98 8zM127 1339l-180 -262h143l129 131l127 -131h146l-175 262h-190z" />
<glyph unicode="&#x136;" horiz-adv-x="1167" d="M121 1311h186v-693l613 693h233l-535 -598l545 -713h-217l-450 584l-189 -195v-389h-186v1311zM510 -94v-207h94q-6 -83 -26 -115q-17 -36 -68 -53v-94q197 38 197 282v187h-197z" />
<glyph unicode="&#x137;" horiz-adv-x="925" d="M117 0v1311h164v-776l372 421h217l-366 -387l393 -569h-203l-309 446l-104 -98v-348h-164zM387 -94v-207h94q-6 -83 -26 -115q-17 -36 -68 -53v-94q197 38 197 282v187h-197z" />
<glyph unicode="&#x138;" horiz-adv-x="925" d="M117 956h164v-421l61 73l311 348h217l-366 -387l393 -569h-203l-309 446l-104 -98v-348h-164v956z" />
<glyph unicode="&#x139;" horiz-adv-x="1036" d="M121 0v1311h186v-1147h658v-164h-844zM180 1473l121 262h209l-197 -262h-133z" />
<glyph unicode="&#x13a;" horiz-adv-x="428" d="M141 0v1311h166v-1311h-166zM127 1470l121 263h209l-197 -263h-133z" />
<glyph unicode="&#x13b;" d="M121 0v1311h186v-1147h658v-164h-844zM449 -94v-207h94q-6 -81 -27 -115q-17 -36 -67 -53v-94q196 37 196 282v187h-196z" />
<glyph unicode="&#x13c;" horiz-adv-x="446" d="M141 0v1311h166v-1311h-166zM121 -94v-207h94q-6 -81 -27 -115q-17 -36 -67 -53v-94q196 37 196 282v187h-196z" />
<glyph unicode="&#x13d;" horiz-adv-x="1013" d="M121 0v1311h186v-1147h658v-164h-844zM723 1098v209h197v-191q0 -238 -197 -282v96q49 14 68 51q20 33 26 117h-94z" />
<glyph unicode="&#x13e;" horiz-adv-x="770" d="M141 0v1311h166v-1311h-166zM475 1098v209h197v-191q0 -238 -197 -282v96q49 14 68 51q20 33 26 117h-94z" />
<glyph unicode="&#x13f;" horiz-adv-x="995" d="M121 0v1311h186v-1147h658v-164h-844zM715 788v-213h168v213h-168z" />
<glyph unicode="&#x140;" horiz-adv-x="718" d="M141 0v1311h166v-1311h-166zM487 788v-213h168v213h-168z" />
<glyph unicode="&#x141;" horiz-adv-x="997" d="M336 842l199 151v-200l-199 -152v-477h661v-164h-839v518l-158 -125v199l158 125v590h178v-465z" />
<glyph unicode="&#x142;" horiz-adv-x="397" d="M281 856l114 90v-198l-114 -93v-655h-164v541l-115 -90v196l115 92v568h164v-451z" />
<glyph unicode="&#x143;" horiz-adv-x="1226" d="M121 0v1311h203l596 -1030v1030h182v-1311h-201l-600 1038v-1038h-180zM483 1470l121 263h209l-197 -263h-133z" />
<glyph unicode="&#x144;" horiz-adv-x="1003" d="M123 0v956h164v-122q64 81 129.5 115t161.5 34q95 0 174 -45t110 -127q21 -79 21 -201v-610h-164v578q0 132 -40.5 194t-152.5 62q-75 0 -137.5 -42.5t-87.5 -111.5q-14 -41 -14 -176v-504h-164zM393 1079l121 262h209l-197 -262h-133z" />
<glyph unicode="&#x145;" horiz-adv-x="1226" d="M121 0v1311h203l596 -1030v1030h182v-1311h-201l-600 1038v-1038h-180zM530 -94v-207h95q-6 -81 -27 -115q-17 -36 -68 -53v-94q197 38 197 282v187h-197z" />
<glyph unicode="&#x146;" horiz-adv-x="1005" d="M123 0v956h164v-122q64 81 129.5 115t161.5 34q95 0 174 -45t110 -127q21 -79 21 -201v-610h-164v578q0 132 -40.5 194t-152.5 62q-75 0 -137.5 -42.5t-87.5 -111.5q-14 -41 -14 -176v-504h-164zM408 -94v-207h94q-6 -81 -27 -115q-17 -36 -67 -53v-94q196 37 196 282 v187h-196z" />
<glyph unicode="&#x147;" horiz-adv-x="1226" d="M121 0v1311h203l596 -1030v1030h182v-1311h-201l-600 1038v-1038h-180zM719 1473l176 262h-141l-129 -131l-127 131h-148l178 -262h191z" />
<glyph unicode="&#x148;" horiz-adv-x="1003" d="M123 0v956h164v-122q64 81 129.5 115t161.5 34q95 0 174 -45t110 -127q21 -79 21 -201v-610h-164v578q0 132 -40.5 194t-152.5 62q-75 0 -137.5 -42.5t-87.5 -111.5q-14 -41 -14 -176v-504h-164zM621 1081l176 262h-142l-129 -131l-127 131h-147l178 -262h191z" />
<glyph unicode="&#x149;" horiz-adv-x="1196" d="M330 0v956h164v-122q64 81 129.5 115t160.5 34t174.5 -45t110.5 -127q21 -79 21 -201v-610h-164v578q0 132 -40.5 194t-152.5 62q-75 0 -137.5 -42.5t-87.5 -111.5q-14 -41 -14 -176v-504h-164zM68 1098v209h196v-191q0 -239 -196 -282v96q47 14 67 51q21 35 27 117h-94z " />
<glyph unicode="&#x14a;" horiz-adv-x="1226" d="M834 -406q-85 0 -142 13v155q61 -22 96 -22q142 0 142 256l-629 1042v-1038h-180v1311h203l596 -1030v1030h182v-1311q0 -406 -268 -406z" />
<glyph unicode="&#x14b;" horiz-adv-x="1013" d="M631 -399q-84 0 -139 10v158q53 -23 94 -23q78 0 108 64q31 64 31 190v578q0 141 -45 198q-45 58 -150 58q-78 0 -139.5 -42.5t-83.5 -111.5q-20 -59 -20 -176v-504h-164v956h164v-122q68 82 137 116q68 33 158 33q100 0 176.5 -46.5t107.5 -125.5q23 -74 23 -201v-610 q0 -179 -41 -272q-58 -127 -217 -127z" />
<glyph unicode="&#x14c;" horiz-adv-x="1421" d="M471 1440h490v139h-490v-139zM707 -29q-194 0 -337.5 86.5t-216.5 238t-73 347.5q0 204 73 359t218.5 244t347.5 89q293 0 462 -183.5t169 -483.5q0 -148 -42 -274t-121.5 -221t-202.5 -148.5t-277 -53.5zM715 141q151 0 253.5 70t148.5 186t46 271q0 226 -116 363.5 t-332 137.5q-112 0 -198.5 -39.5t-139.5 -110.5t-80 -165t-27 -207q0 -226 115 -366t330 -140z" />
<glyph unicode="&#x14d;" horiz-adv-x="1017" d="M264 1079h490v140h-490v-140zM76 477q0 110 26 200.5t78 159.5t136.5 107.5t193.5 38.5q143 0 242.5 -67.5t145.5 -179.5t46 -259q0 -107 -27.5 -198t-80 -160t-136.5 -108.5t-190 -39.5q-211 0 -322.5 139.5t-111.5 366.5zM510 125q123 0 189.5 94.5t66.5 267.5 q0 69 -14.5 129t-43.5 110t-80 79t-118 29q-124 0 -191 -93.5t-67 -263.5q0 -167 67 -259.5t191 -92.5z" />
<glyph unicode="&#x14e;" horiz-adv-x="1421" d="M707 -29q-194 0 -337.5 86.5t-216.5 238t-73 347.5q0 204 73 359t218.5 244t347.5 89q293 0 462 -183.5t169 -483.5q0 -148 -42 -274t-121.5 -221t-202.5 -148.5t-277 -53.5zM715 141q151 0 253.5 70t148.5 186t46 271q0 226 -116 363.5t-332 137.5q-112 0 -198.5 -39.5 t-139.5 -110.5t-80 -165t-27 -207q0 -226 115 -366t330 -140zM440 1743q18 -268 281 -268q244 0 262 268h-113q-21 -137 -159 -137q-134 0 -158 137h-113z" />
<glyph unicode="&#x14f;" horiz-adv-x="1017" d="M76 477q0 110 26 200.5t78 159.5t136.5 107.5t193.5 38.5q143 0 242.5 -67.5t145.5 -179.5t46 -259q0 -107 -27.5 -198t-80 -160t-136.5 -108.5t-190 -39.5q-211 0 -322.5 139.5t-111.5 366.5zM510 125q123 0 189.5 94.5t66.5 267.5q0 69 -14.5 129t-43.5 110t-80 79 t-118 29q-124 0 -191 -93.5t-67 -263.5q0 -167 67 -259.5t191 -92.5zM244 1343q18 -268 280 -268q244 0 262 268h-112q-21 -137 -160 -137q-134 0 -158 137h-112z" />
<glyph unicode="&#x150;" horiz-adv-x="1421" d="M707 -29q-194 0 -337.5 86.5t-216.5 238t-73 347.5q0 204 73 359t218.5 244t347.5 89q293 0 462 -183.5t169 -483.5q0 -148 -42 -274t-121.5 -221t-202.5 -148.5t-277 -53.5zM715 141q151 0 253.5 70t148.5 186t46 271q0 226 -116 363.5t-332 137.5q-112 0 -198.5 -39.5 t-139.5 -110.5t-80 -165t-27 -207q0 -226 115 -366t330 -140zM563 1733l-123 -263h119l176 263h-172zM840 1733l-123 -263h119l176 263h-172z" />
<glyph unicode="&#x151;" horiz-adv-x="1017" d="M76 477q0 110 26 200.5t78 159.5t136.5 107.5t193.5 38.5q143 0 242.5 -67.5t145.5 -179.5t46 -259q0 -107 -27.5 -198t-80 -160t-136.5 -108.5t-190 -39.5q-211 0 -322.5 139.5t-111.5 366.5zM510 125q123 0 189.5 94.5t66.5 267.5q0 69 -14.5 129t-43.5 110t-80 79 t-118 29q-124 0 -191 -93.5t-67 -263.5q0 -167 67 -259.5t191 -92.5zM395 1343l-123 -262h119l176 262h-172zM672 1343l-123 -262h119l176 262h-172z" />
<glyph unicode="&#x152;" horiz-adv-x="1789" d="M1694 1300h-748v-100q-112 133 -321 133q-247 0 -406 -190q-153 -191 -153 -496q0 -297 149 -483q156 -187 393 -187q215 0 338 148v-125h758v164h-586v428h520v164h-520v379h576v165zM936 989v-659q-120 -189 -299 -189q-169 0 -279 140q-104 140 -104 372 q0 235 104 375q107 141 279 141q180 0 299 -180z" />
<glyph unicode="&#x153;" horiz-adv-x="1691" d="M860 811q-120 172 -348 172q-200 0 -317 -135q-115 -133 -115 -371q0 -234 113 -368q120 -132 319 -132q228 0 344 162l2 -4q115 -158 330 -158q152 0 266 91q107 85 143 245h-172q-43 -190 -231 -190q-244 0 -262 301h678q0 16 1 45t1 41q0 218 -111 344 q-109 127 -301 127q-211 0 -340 -170zM256 477q0 171 68 262q68 95 188 95q119 0 188 -93q70 -94 70 -256q0 -174 -67 -268t-191 -94q-121 0 -188.5 93.5t-67.5 260.5zM1444 571h-504q40 258 256 258q106 0 172 -69q67 -70 76 -189z" />
<glyph unicode="&#x154;" horiz-adv-x="1210" d="M301 0h-180v1311h543q237 0 354 -82t117 -281q0 -218 -187 -297q55 -18 88.5 -43t50 -65t21 -81t4.5 -110v-145q0 -122 57 -207h-213q-30 108 -30 188v164q0 55 -12.5 93.5t-33.5 61t-58 35t-75 16t-96 3.5h-350v-561zM301 1147v-422h342q59 0 99 3.5t82 15.5t66.5 34 t40 60.5t15.5 93.5q0 65 -20.5 108.5t-61.5 66t-89.5 31.5t-115.5 9h-358zM463 1479l121 262h209l-197 -262h-133z" />
<glyph unicode="&#x155;" horiz-adv-x="632" d="M121 0v956h166v-155q89 182 231 182q47 0 68 -6v-176q-14 4 -51 4q-145 0 -205 -100q-43 -73 -43 -230v-475h-166zM141 1081l121 262h209l-197 -262h-133z" />
<glyph unicode="&#x156;" horiz-adv-x="1214" d="M301 0h-180v1311h543q237 0 354 -82t117 -281q0 -218 -187 -297q55 -18 88.5 -43t50 -65t21 -81t4.5 -110v-145q0 -122 57 -207h-213q-30 108 -30 188v164q0 55 -12.5 93.5t-33.5 61t-58 35t-75 16t-96 3.5h-350v-561zM301 1147v-422h342q59 0 99 3.5t82 15.5t66.5 34 t40 60.5t15.5 93.5q0 65 -20.5 108.5t-61.5 66t-89.5 31.5t-115.5 9h-358zM530 -94v-207h95q-6 -81 -27 -115q-17 -36 -68 -53v-94q197 38 197 282v187h-197z" />
<glyph unicode="&#x157;" horiz-adv-x="634" d="M121 0v956h166v-155q89 182 231 182q47 0 68 -6v-176q-14 4 -51 4q-145 0 -205 -100q-43 -73 -43 -230v-475h-166zM113 -94v-207h94q-6 -81 -27 -115q-17 -36 -67 -53v-94q196 37 196 282v187h-196z" />
<glyph unicode="&#x158;" horiz-adv-x="1210" d="M301 0h-180v1311h543q237 0 354 -82t117 -281q0 -218 -187 -297q55 -18 88.5 -43t50 -65t21 -81t4.5 -110v-145q0 -122 57 -207h-213q-30 108 -30 188v164q0 55 -12.5 93.5t-33.5 61t-58 35t-75 16t-96 3.5h-350v-561zM301 1147v-422h342q59 0 99 3.5t82 15.5t66.5 34 t40 60.5t15.5 93.5q0 65 -20.5 108.5t-61.5 66t-89.5 31.5t-115.5 9h-358zM647 1473l176 262h-141l-129 -131l-127 131h-147l178 -262h190z" />
<glyph unicode="&#x159;" horiz-adv-x="634" d="M121 0v956h166v-155q89 182 231 182q47 0 68 -6v-176q-14 4 -51 4q-145 0 -205 -100q-43 -73 -43 -230v-475h-166zM393 1081l176 262h-141l-129 -131l-127 131h-147l178 -262h190z" />
<glyph unicode="&#x15a;" horiz-adv-x="1198" d="M80 438h190q3 -104 13 -135q27 -86 119.5 -124t213.5 -38q57 0 110 11t101 33.5t76.5 64.5t28.5 98q0 98 -160 160l-399 147q-244 92 -244 301q0 93 39.5 167.5t106.5 119.5t150 68.5t175 23.5q473 0 473 -422h-190q0 132 -71.5 194t-215.5 62q-68 0 -129 -19.5 t-105.5 -65.5t-44.5 -111q0 -63 31 -91.5t109 -58.5l415 -155q244 -88 244 -301q0 -99 -43 -177t-116 -124.5t-162 -70.5t-189 -24q-526 0 -526 422v45zM428 1470l121 263h209l-197 -263h-133z" />
<glyph unicode="&#x15b;" horiz-adv-x="905" d="M72 313h172q0 -100 50 -144t161 -44q94 0 150.5 37.5t56.5 99.5q0 55 -93 96l-301 129q-172 73 -172 215q0 90 53.5 155.5t133 95.5t172.5 30q100 0 178.5 -33t127.5 -103t50 -167h-170q-6 154 -190 154q-69 0 -126 -29t-57 -86q0 -54 82 -88l279 -113q117 -47 163 -96 t46 -135q0 -78 -32 -139.5t-86.5 -99.5t-122.5 -57.5t-144 -19.5q-183 0 -282 89t-99 253zM324 1079l120 262h209l-196 -262h-133z" />
<glyph unicode="&#x15c;" horiz-adv-x="1198" d="M80 438h190q3 -104 13 -135q27 -86 119.5 -124t213.5 -38q57 0 110 11t101 33.5t76.5 64.5t28.5 98q0 98 -160 160l-399 147q-244 92 -244 301q0 93 39.5 167.5t106.5 119.5t150 68.5t175 23.5q473 0 473 -422h-190q0 132 -71.5 194t-215.5 62q-68 0 -129 -19.5 t-105.5 -65.5t-44.5 -111q0 -63 31 -91.5t109 -58.5l415 -155q244 -88 244 -301q0 -99 -43 -177t-116 -124.5t-162 -70.5t-189 -24q-526 0 -526 422v45zM494 1737l-181 -262h144l129 131l127 -131h145l-174 262h-190z" />
<glyph unicode="&#x15d;" horiz-adv-x="905" d="M72 313h172q0 -100 50 -144t161 -44q94 0 150.5 37.5t56.5 99.5q0 55 -93 96l-301 129q-172 73 -172 215q0 90 53.5 155.5t133 95.5t172.5 30q100 0 178.5 -33t127.5 -103t50 -167h-170q-6 154 -190 154q-69 0 -126 -29t-57 -86q0 -54 82 -88l279 -113q117 -47 163 -96 t46 -135q0 -78 -32 -139.5t-86.5 -99.5t-122.5 -57.5t-144 -19.5q-183 0 -282 89t-99 253zM350 1343l-180 -262h143l129 131l127 -131h146l-174 262h-191z" />
<glyph unicode="&#x15e;" horiz-adv-x="1198" d="M80 438h190q3 -104 13 -135q27 -86 119.5 -124t213.5 -38q57 0 110 11t101 33.5t76.5 64.5t28.5 98q0 98 -160 160l-399 147q-244 92 -244 301q0 93 39.5 167.5t106.5 119.5t150 68.5t175 23.5q473 0 473 -422h-190q0 132 -71.5 194t-215.5 62q-68 0 -129 -19.5 t-105.5 -65.5t-44.5 -111q0 -63 31 -91.5t109 -58.5l415 -155q244 -88 244 -301q0 -99 -43 -177t-116 -124.5t-162 -70.5t-189 -24q-526 0 -526 422v45zM518 0h88l-84 -121q37 12 68 12q77 0 122.5 -38.5t45.5 -102.5q0 -78 -66 -123q-61 -47 -170 -47q-97 0 -196 41l34 74 q72 -27 150 -27q98 0 98 76q0 70 -96 70q-32 0 -74 -17l-37 39z" />
<glyph unicode="&#x15f;" horiz-adv-x="907" d="M72 313h172q0 -100 50 -144t161 -44q94 0 150.5 37.5t56.5 99.5q0 55 -93 96l-301 129q-172 73 -172 215q0 90 53.5 155.5t133 95.5t172.5 30q100 0 178.5 -33t127.5 -103t50 -167h-170q-6 154 -190 154q-69 0 -126 -29t-57 -86q0 -54 82 -88l279 -113q117 -47 163 -96 t46 -135q0 -78 -32 -139.5t-86.5 -99.5t-122.5 -57.5t-144 -19.5q-183 0 -282 89t-99 253zM440 0h88l-84 -121q38 12 68 12q77 0 122.5 -38.5t45.5 -102.5q0 -78 -66 -123q-61 -47 -170 -47q-97 0 -196 41l35 74q72 -27 149 -27q98 0 98 76q0 70 -96 70q-32 0 -74 -17 l-36 39z" />
<glyph unicode="&#x160;" horiz-adv-x="1198" d="M80 438h190q3 -104 13 -135q27 -86 119.5 -124t213.5 -38q57 0 110 11t101 33.5t76.5 64.5t28.5 98q0 98 -160 160l-399 147q-244 92 -244 301q0 93 39.5 167.5t106.5 119.5t150 68.5t175 23.5q473 0 473 -422h-190q0 132 -71.5 194t-215.5 62q-68 0 -129 -19.5 t-105.5 -65.5t-44.5 -111q0 -63 31 -91.5t109 -58.5l415 -155q244 -88 244 -301q0 -99 -43 -177t-116 -124.5t-162 -70.5t-189 -24q-526 0 -526 422v45zM696 1475l176 262h-141l-129 -131l-127 131h-147l178 -262h190z" />
<glyph unicode="&#x161;" horiz-adv-x="905" d="M72 313h172q0 -100 50 -144t161 -44q94 0 150.5 37.5t56.5 99.5q0 55 -93 96l-301 129q-172 73 -172 215q0 90 53.5 155.5t133 95.5t172.5 30q100 0 178.5 -33t127.5 -103t50 -167h-170q-6 154 -190 154q-69 0 -126 -29t-57 -86q0 -54 82 -88l279 -113q117 -47 163 -96 t46 -135q0 -78 -32 -139.5t-86.5 -99.5t-122.5 -57.5t-144 -19.5q-183 0 -282 89t-99 253zM522 1081l176 262h-141l-129 -131l-127 131h-147l178 -262h190z" />
<glyph unicode="&#x162;" horiz-adv-x="1126" d="M39 1311h1046v-164h-434v-1147h-180v1147h-432v164zM516 0h88l-84 -121q37 12 68 12q77 0 122.5 -38.5t45.5 -102.5q0 -78 -66 -123q-61 -47 -170 -47q-97 0 -196 41l34 74q72 -27 150 -27q98 0 98 76q0 70 -96 70q-32 0 -74 -17l-37 39z" />
<glyph unicode="&#x163;" horiz-adv-x="530" d="M35 819v137h127v238h166v-238h153v-137h-153v-581q0 -71 18 -92.5t86 -24.5q25 0 49 4v-145q-113 -9 -119 -9q-52 0 -88.5 12.5t-58 33.5t-33.5 58t-16 76.5t-4 98.5v569h-127zM276 0h89l-84 -121q38 12 67 12q77 0 122.5 -38.5t45.5 -102.5q0 -78 -65 -123 q-61 -47 -170 -47q-98 0 -197 41l35 74q72 -27 149 -27q99 0 99 76q0 70 -97 70q-30 0 -73 -17l-37 39z" />
<glyph unicode="&#x164;" horiz-adv-x="1126" d="M39 1311h1046v-164h-434v-1147h-180v1147h-432v164zM655 1473l176 262h-141l-129 -131l-127 131h-147l178 -262h190z" />
<glyph unicode="&#x165;" horiz-adv-x="823" d="M35 819v137h127v238h166v-238h153v-137h-153v-581q0 -71 18 -92.5t86 -24.5q25 0 49 4v-145q-113 -9 -119 -9q-52 0 -88.5 12.5t-58 33.5t-33.5 58t-16 76.5t-4 98.5v569h-127zM575 1147v209h197v-191q0 -238 -197 -282v96q49 14 68 51q21 34 27 117h-95z" />
<glyph unicode="&#x166;" horiz-adv-x="1126" d="M231 874h240v273h-432v164h1046v-164h-430v-273h234v-151h-234v-723h-184v723h-240v151z" />
<glyph unicode="&#x167;" horiz-adv-x="559" d="M35 569h127v250h-127v137h127v238h166v-238h153v-137h-153v-250h151v-145h-151v-186q0 -75 16 -91q20 -26 88 -26q25 0 49 4v-145q-23 0 -57 -5q-58 -4 -62 -4q-115 0 -157 60q-43 54 -43 219v174h-127v145z" />
<glyph unicode="&#x168;" horiz-adv-x="1255" d="M119 1311h186v-815q0 -355 328 -355q158 0 241.5 94.5t83.5 256.5v819h181v-819q0 -240 -135.5 -380.5t-374.5 -140.5q-244 0 -377 131t-133 373v836zM836 1683q-34 -63 -68 -63q-36 0 -106 31q-72 32 -107 32q-141 0 -190 -210h114q28 61 70 61q25 0 102 -31 q71 -30 111 -30q139 0 182 210h-108z" />
<glyph unicode="&#x169;" d="M121 956h166v-608q0 -125 43 -174q40 -49 141 -49q127 0 197 104q57 85 57 242v485h164v-956h-164v150q-77 -179 -293 -179q-311 0 -311 371v614zM692 1343q-34 -63 -67 -63q-37 0 -107 31q-72 32 -106 32q-142 0 -191 -210h115q28 61 70 61q24 0 102 -31q70 -30 110 -30 q140 0 183 210h-109z" />
<glyph unicode="&#x16a;" horiz-adv-x="1259" d="M381 1438h489v139h-489v-139zM119 1311h186v-815q0 -355 328 -355q158 0 241.5 94.5t83.5 256.5v819h181v-819q0 -240 -135.5 -380.5t-374.5 -140.5q-244 0 -377 131t-133 373v836z" />
<glyph unicode="&#x16b;" d="M250 1079h489v140h-489v-140zM121 956h166v-608q0 -125 43 -174q40 -49 141 -49q127 0 197 104q57 85 57 242v485h164v-956h-164v150q-77 -179 -293 -179q-311 0 -311 371v614z" />
<glyph unicode="&#x16c;" horiz-adv-x="1259" d="M119 1311h186v-815q0 -355 328 -355q158 0 241.5 94.5t83.5 256.5v819h181v-819q0 -240 -135.5 -380.5t-374.5 -140.5q-244 0 -377 131t-133 373v836zM362 1741q18 -268 281 -268q244 0 262 268h-112q-21 -137 -160 -137q-134 0 -158 137h-113z" />
<glyph unicode="&#x16d;" d="M121 956h166v-608q0 -125 43 -174q40 -49 141 -49q127 0 197 104q57 85 57 242v485h164v-956h-164v150q-77 -179 -293 -179q-311 0 -311 371v614zM240 1343q18 -268 280 -268q244 0 262 268h-112q-21 -137 -160 -137q-134 0 -158 137h-112z" />
<glyph unicode="&#x16e;" horiz-adv-x="1255" d="M119 1311h186v-815q0 -355 328 -355q158 0 241.5 94.5t83.5 256.5v819h181v-819q0 -240 -135.5 -380.5t-374.5 -140.5q-244 0 -377 131t-133 373v836zM639 1806q-77 0 -135 -55q-55 -52 -55 -133q0 -78 55 -133q61 -58 135 -58q75 0 133 58q55 55 55 133q0 81 -55 133 q-55 55 -133 55zM639 1710q37 0 63.5 -27t26.5 -65t-26.5 -65t-63.5 -27q-40 0 -66 26t-26 66q0 38 27.5 65t64.5 27z" />
<glyph unicode="&#x16f;" d="M121 956h166v-608q0 -125 43 -174q40 -49 141 -49q127 0 197 104q57 85 57 242v485h164v-956h-164v150q-77 -179 -293 -179q-311 0 -311 371v614zM522 1430q-76 0 -135 -56q-55 -52 -55 -133q0 -78 55 -133q60 -57 135 -57q76 0 133 57q56 56 56 133q0 80 -56 133 q-56 56 -133 56zM522 1333q37 0 63.5 -27t26.5 -65t-26.5 -65t-63.5 -27q-38 0 -65 27t-27 65t27.5 65t64.5 27z" />
<glyph unicode="&#x170;" horiz-adv-x="1255" d="M119 1311h186v-815q0 -355 328 -355q158 0 241.5 94.5t83.5 256.5v819h181v-819q0 -240 -135.5 -380.5t-374.5 -140.5q-244 0 -377 131t-133 373v836zM537 1733l-123 -263h118l177 263h-172zM813 1733l-123 -263h119l176 263h-172z" />
<glyph unicode="&#x171;" d="M121 956h166v-608q0 -125 43 -174q40 -49 141 -49q127 0 197 104q57 85 57 242v485h164v-956h-164v150q-77 -179 -293 -179q-311 0 -311 371v614zM397 1337l-123 -262h119l176 262h-172zM674 1337l-123 -262h119l176 262h-172z" />
<glyph unicode="&#x172;" horiz-adv-x="1255" d="M119 1311h186v-815q0 -355 328 -355q158 0 241.5 94.5t83.5 256.5v819h181v-819q0 -240 -135.5 -380.5t-374.5 -140.5q-244 0 -377 131t-133 373v836zM686 0q-154 -80 -154 -190q0 -75 58 -127q56 -50 143 -50q68 0 129 25v123q-38 -17 -90 -17q-102 0 -102 86 q0 81 141 150h-125z" />
<glyph unicode="&#x173;" d="M121 956h166v-608q0 -125 43 -174q40 -49 141 -49q127 0 197 104q57 85 57 242v485h164v-956h-164v150q-77 -179 -293 -179q-311 0 -311 371v614zM760 0q-154 -80 -154 -190q0 -75 58 -127q56 -50 143 -50q68 0 129 25v123q-38 -17 -90 -17q-103 0 -103 86q0 81 142 150 h-125z" />
<glyph unicode="&#x174;" horiz-adv-x="1671" d="M336 0l-336 1311h199l190 -785q20 -82 49 -260q18 90 60 260l235 785h187l235 -785l59 -260q21 123 52 260l207 785h194l-356 -1311h-185l-303 1227l-297 -1227h-190zM731 1733l-180 -263h143l129 132l127 -132h146l-174 263h-191z" />
<glyph unicode="&#x175;" horiz-adv-x="1294" d="M289 0l-279 956h180l140 -559q2 -12 7 -35.5t14.5 -67t17.5 -81.5q14 77 39 184l145 559h184l140 -550q13 -43 38 -185q9 51 43 185l152 550h170l-287 -956h-168l-184 735l-186 -735h-166zM561 1343l-180 -262h143l129 131l127 -131h146l-174 262h-191z" />
<glyph unicode="&#x176;" horiz-adv-x="1200" d="M510 518l-510 793h213l393 -621l377 621h215l-504 -793v-518h-184v518zM520 1733l-180 -263h143l129 132l127 -132h146l-174 263h-191z" />
<glyph unicode="&#x177;" horiz-adv-x="892" d="M197 956l256 -757l247 757h181l-381 -1062q-54 -148 -88 -191q-65 -96 -172 -96q-75 0 -138 16v158q61 -25 99 -25q57 0 84 41q26 37 80 183l-355 976h187zM371 1343l-181 -262h144l129 131l127 -131h145l-174 262h-190z" />
<glyph unicode="&#x178;" horiz-adv-x="1204" d="M510 518l-510 793h213l393 -621l377 621h215l-504 -793v-518h-184v518zM688 1702h164v-213h-164v213zM379 1489v213h164v-213h-164z" />
<glyph unicode="&#x179;" horiz-adv-x="1105" d="M20 0v162l789 985h-731v164h956v-160l-792 -987h792v-164h-1014zM410 1470l120 263h209l-196 -263h-133z" />
<glyph unicode="&#x17a;" horiz-adv-x="878" d="M55 133l541 676h-502v147h715v-129l-539 -677h553v-150h-768v133zM313 1079l121 262h209l-197 -262h-133z" />
<glyph unicode="&#x17b;" horiz-adv-x="1110" d="M20 0v162l789 985h-731v164h956v-160l-792 -987h792v-164h-1014zM459 1700v-213h168v213h-168z" />
<glyph unicode="&#x17c;" horiz-adv-x="878" d="M55 133l541 676h-502v147h715v-129l-539 -677h553v-150h-768v133zM354 1339v-213h168v213h-168z" />
<glyph unicode="&#x17d;" horiz-adv-x="1105" d="M20 0v162l789 985h-731v164h956v-160l-792 -987h792v-164h-1014zM649 1473l176 262h-141l-129 -131l-127 131h-147l178 -262h190z" />
<glyph unicode="&#x17e;" horiz-adv-x="878" d="M55 133l541 676h-502v147h715v-129l-539 -677h553v-150h-768v133zM539 1079l176 262h-142l-129 -131l-127 131h-147l178 -262h191z" />
<glyph unicode="&#x17f;" horiz-adv-x="620" d="M180 1026q0 170 41 223q65 86 185 86q39 0 104 -8v-153q-44 12 -64 12q-100 0 -100 -133v-1053h-166v1026z" />
<glyph unicode="&#x192;" horiz-adv-x="997" d="M817 817h-194l39 191q20 103 63 137q35 23 162 35l20 2l25 141q-35 4 -98 4q-153 0 -226 -70q-77 -71 -104 -237l-35 -203h-168l-22 -117h167l-127 -698q-27 -139 -69 -178q-44 -41 -189 -41l-22 -145q22 -1 46 -2t39 -2t23 -1q171 0 246 115q52 69 88 266l125 686h187z " />
<glyph unicode="&#x1fa;" horiz-adv-x="1167" d="M504 1311h84q-72 3 -127 55q-53 59 -53 137q0 75 53 131q59 56 135 56q79 0 135 -56q55 -55 55 -131q0 -79 -55 -137q-52 -52 -127 -55h90l473 -1311h-198l-133 389h-504l-137 -389h-195zM389 537h395l-194 575zM635 1993h211l-197 -262h-135zM596 1593 q-37 0 -63.5 -26.5t-26.5 -63.5q0 -44 26 -67q27 -27 64 -27t63.5 28t26.5 66t-26.5 64t-63.5 26z" />
<glyph unicode="&#x1fb;" horiz-adv-x="1028" d="M479 842q-213 0 -213 -183h-162q0 136 84 220q98 104 299 104q175 0 263 -63q104 -73 104 -240v-457q0 -102 55 -102q28 0 60 16v-131q-59 -35 -113 -35q-136 0 -154 158q-152 -158 -329 -158q-137 0 -223 80q-84 78 -84 211q0 142 112 217q93 61 273 88q70 10 239 27v57 q0 191 -211 191zM690 477q-262 -30 -354 -71q-98 -43 -98 -142q0 -143 176 -143q112 0 194 67q82 70 82 158v131zM514 1430q78 0 131 -56q55 -49 55 -133q0 -81 -55 -133q-54 -57 -131 -57q-78 0 -135 57q-53 53 -53 133q0 83 53 133q56 56 135 56zM526 1774h211l-198 -261 h-133zM514 1333q-38 0 -65 -27t-27 -65t27 -65t65 -27t64 27t26 65t-26 65t-64 27z" />
<glyph unicode="&#x1fc;" horiz-adv-x="1761" d="M471 537h377v604h-98zM668 1307h1026v-166h-662v-385h606v-164h-606v-428h672v-164h-856v389h-449l-188 -389h-199zM739 1475l121 262h209l-197 -262h-133z" />
<glyph unicode="&#x1fd;" horiz-adv-x="1320" d="M858 571h500q-3 113 -69.5 185.5t-176.5 72.5q-220 0 -254 -258zM690 346v131q-246 -40 -262 -45q-172 -52 -172 -162q0 -69 44.5 -108t119.5 -39q107 0 186 67q84 69 84 156zM811 856q134 125 303 125q198 0 307 -130.5t109 -340.5q0 -24 -4 -86h-678q18 -301 264 -301 q182 0 231 190h173q-29 -149 -143.5 -242.5t-268.5 -93.5q-246 0 -356 201q-52 -89 -154 -145t-207 -56q-140 0 -223.5 75t-83.5 208q0 70 27.5 125.5t77.5 92t111.5 58.5t135.5 33l258 37q0 127 -40 177.5t-156 50.5q-193 0 -205 -177h-170q4 162 102 244t275 82 q221 0 315 -127zM336 1083l121 263h209l-197 -263h-133z" />
<glyph unicode="&#x1fe;" horiz-adv-x="1429" d="M1073 954l-653 -714q114 -99 278 -99q89 0 161.5 26t123.5 72.5t85.5 112t50.5 143t16 167.5q0 171 -62 292zM319 367l646 712q-102 88 -267 88q-144 0 -245 -69t-148 -183.5t-47 -263.5q0 -179 61 -284zM1094 1210l155 166l119 -110l-162 -174q117 -167 117 -424 q0 -147 -41 -271.5t-118.5 -218.5t-199 -147.5t-274.5 -53.5q-266 0 -401 129l-158 -169l-119 104l170 182q-112 169 -112 422q0 147 41.5 272t119 217.5t197.5 144.5t270 52q242 0 396 -121zM586 1468l121 263h208l-196 -263h-133z" />
<glyph unicode="&#x1ff;" d="M788 651l-2 4l-399 -475q69 -57 158 -57q266 0 266 364q0 101 -18 154q-2 0 -5 10zM307 309l395 473q-52 52 -151 52q-128 0 -199 -91.5t-71 -255.5q0 -93 26 -178zM815 899l135 158l111 -94l-150 -172q76 -121 76 -312q0 -143 -51 -255.5t-154 -179.5t-245 -67 q-154 0 -267 82l-137 -153l-108 94l151 170q-70 118 -70 293q0 152 48 266.5t151.5 183.5t251.5 70q138 0 258 -84zM432 1087l121 263h209l-197 -263h-133z" />
<glyph unicode="&#x218;" horiz-adv-x="1198" d="M80 438h190q3 -104 13 -135q27 -86 119.5 -124t213.5 -38q57 0 110 11t101 33.5t76.5 64.5t28.5 98q0 98 -160 160l-399 147q-244 92 -244 301q0 93 39.5 167.5t106.5 119.5t150 68.5t175 23.5q473 0 473 -422h-190q0 132 -71.5 194t-215.5 62q-68 0 -129 -19.5 t-105.5 -65.5t-44.5 -111q0 -63 31 -91.5t109 -58.5l415 -155q244 -88 244 -301q0 -99 -43 -177t-116 -124.5t-162 -70.5t-189 -24q-526 0 -526 422v45zM483 -109v-206h95q-6 -81 -27 -115q-17 -36 -68 -53v-95q197 38 197 283v186h-197z" />
<glyph unicode="&#x219;" horiz-adv-x="907" d="M72 313h172q0 -100 50 -144t161 -44q94 0 150.5 37.5t56.5 99.5q0 55 -93 96l-301 129q-172 73 -172 215q0 90 53.5 155.5t133 95.5t172.5 30q100 0 178.5 -33t127.5 -103t50 -167h-170q-6 154 -190 154q-69 0 -126 -29t-57 -86q0 -54 82 -88l279 -113q117 -47 163 -96 t46 -135q0 -78 -32 -139.5t-86.5 -99.5t-122.5 -57.5t-144 -19.5q-183 0 -282 89t-99 253zM354 -94v-207h95q-6 -81 -27 -115q-17 -36 -68 -53v-94q197 38 197 282v187h-197z" />
<glyph unicode="&#x21a;" horiz-adv-x="1126" d="M39 1311h1046v-164h-434v-1147h-180v1147h-432v164zM516 0h88l-84 -121q37 12 68 12q77 0 122.5 -38.5t45.5 -102.5q0 -78 -66 -123q-61 -47 -170 -47q-97 0 -196 41l34 74q72 -27 150 -27q98 0 98 76q0 70 -96 70q-32 0 -74 -17l-37 39z" />
<glyph unicode="&#x21b;" horiz-adv-x="530" d="M35 819v137h127v238h166v-238h153v-137h-153v-581q0 -71 18 -92.5t86 -24.5q25 0 49 4v-145q-113 -9 -119 -9q-52 0 -88.5 12.5t-58 33.5t-33.5 58t-16 76.5t-4 98.5v569h-127zM276 0h89l-84 -121q38 12 67 12q77 0 122.5 -38.5t45.5 -102.5q0 -78 -65 -123 q-61 -47 -170 -47q-98 0 -197 41l35 74q72 -27 149 -27q99 0 99 76q0 70 -97 70q-30 0 -73 -17l-37 39z" />
<glyph unicode="&#x2c6;" horiz-adv-x="598" d="M205 1343l-180 -262h143l129 131l127 -131h145l-174 262h-190z" />
<glyph unicode="&#x2c7;" horiz-adv-x="598" d="M393 1081l176 262h-141l-129 -131l-127 131h-147l178 -262h190z" />
<glyph unicode="&#x2d8;" horiz-adv-x="598" d="M27 1343q18 -268 280 -268q244 0 262 268h-112q-21 -137 -160 -137q-134 0 -158 137h-112z" />
<glyph unicode="&#x2d9;" horiz-adv-x="598" d="M215 1343v-213h168v213h-168z" />
<glyph unicode="&#x2da;" horiz-adv-x="598" d="M299 1430q-76 0 -135 -56q-55 -52 -55 -133q0 -78 55 -133q60 -57 135 -57q76 0 133 57q55 55 55 133q0 81 -55 133q-56 56 -133 56zM299 1333q37 0 63.5 -27t26.5 -65t-26.5 -65t-63.5 -27q-39 0 -66 27q-26 26 -26 65q0 38 27.5 65t64.5 27z" />
<glyph unicode="&#x2db;" horiz-adv-x="598" d="M287 0q-154 -80 -154 -190q0 -76 57 -127q56 -50 144 -50q68 0 129 25v123q-38 -17 -90 -17q-103 0 -103 86q0 81 142 150h-125z" />
<glyph unicode="&#x2dc;" horiz-adv-x="598" d="M477 1343q-34 -63 -67 -63q-37 0 -107 31q-72 32 -106 32q-142 0 -191 -210h115q28 61 69 61q26 0 103 -31q71 -30 110 -30q140 0 183 210h-109z" />
<glyph unicode="&#x2dd;" horiz-adv-x="598" d="M135 1343l-123 -262h119l176 262h-172zM412 1343l-123 -262h119l176 262h-172z" />
<glyph unicode="&#x384;" horiz-adv-x="518" d="M225 1495l-123 -262h136l202 262h-215z" />
<glyph unicode="&#x385;" horiz-adv-x="929" d="M147 1323v-211h164v211h-164zM678 1323h-166v-211h166v211zM340 1468h125l174 238h-190z" />
<glyph unicode="&#x386;" horiz-adv-x="1298" d="M467 537l201 575l194 -575h-395zM582 1311l-504 -1311h194l138 389h503l134 -389h198l-473 1311h-190zM121 780h100l37 531h-174z" />
<glyph unicode="&#x387;" horiz-adv-x="550" d="M279 913q-44 0 -75.5 -31t-31.5 -75t31.5 -76.5t75.5 -32.5t76 32.5t32 76.5t-32 75t-76 31z" />
<glyph unicode="&#x388;" horiz-adv-x="1394" d="M352 1311v-1311h940v164h-760v432h705v164h-705v387h760v164h-940zM96 780h101l36 531h-174z" />
<glyph unicode="&#x389;" horiz-adv-x="1478" d="M559 1311h-186v-1311h186v606h612v-606h187v1311h-187v-539h-612v539zM123 780h100l37 531h-174z" />
<glyph unicode="&#x38a;" horiz-adv-x="684" d="M342 1311h186v-1311h-186v1311zM104 780h101l37 531h-174z" />
<glyph unicode="&#x38c;" horiz-adv-x="1691" d="M952 -29q-194 0 -337 87t-216 238t-73 347q0 204 73 359t218.5 244t347.5 89q195 0 338.5 -85t217.5 -235t74 -347q0 -148 -42 -274t-121.5 -221t-202.5 -148.5t-277 -53.5zM961 141q151 0 253.5 70t148.5 186t46 271q0 226 -116 363.5t-332 137.5q-112 0 -198.5 -39.5 t-139.5 -110.5t-80 -165t-27 -207q0 -226 115 -366t330 -140zM123 780h100l37 531h-174z" />
<glyph unicode="&#x38e;" horiz-adv-x="1544" d="M838 518l-510 793h213l393 -621l377 621h215l-504 -793v-518h-184v518zM123 780h100l37 531h-174z" />
<glyph unicode="&#x38f;" horiz-adv-x="1765" d="M975 1331q-294 0 -463 -178q-174 -183 -174 -487q0 -400 293 -508h-305v-158h526v137q-159 39 -242 176q-84 141 -84 353q0 229 119 366q120 135 326 135q207 0 327 -135q119 -137 119 -366q0 -216 -86 -355q-84 -136 -241 -174v-137h528v158h-307q293 108 293 508 q0 306 -170 485q-168 180 -459 180zM117 780h100l37 531h-174z" />
<glyph unicode="&#x390;" horiz-adv-x="532" d="M168 250q0 -157 41 -219q49 -58 164 -58q12 0 29 1.5t44 4t46 3.5v139h-56q-60 0 -82 22q-22 19 -22 93v722h-164v-708zM-8 1323v-211h164v211h-164zM522 1323h-166v-211h166v211zM184 1468h125l174 238h-190z" />
<glyph unicode="&#x391;" horiz-adv-x="1167" d="M389 537l201 575l194 -575h-395zM504 1311l-504 -1311h195l137 389h504l133 -389h198l-473 1311h-190z" />
<glyph unicode="&#x392;" horiz-adv-x="1210" d="M358 600h314q143 0 216 -55t73 -162q0 -219 -310 -219h-293v436zM1149 379q0 116 -62 205q-63 94 -165 123q172 70 172 266q0 163 -129 264q-91 74 -310 74h-483v-1311h500q233 0 336 74q141 102 141 305zM905 948q0 -184 -243 -184h-304v383h289q138 0 198 -46t60 -153z " />
<glyph unicode="&#x393;" horiz-adv-x="1073" d="M340 1147h649v164h-831v-1311h182v1147z" />
<glyph unicode="&#x394;" horiz-adv-x="1273" d="M47 0h1178l-555 1341h-35zM991 84h-813l424 963z" />
<glyph unicode="&#x395;" horiz-adv-x="1210" d="M160 1311v-1311h940v164h-760v432h704v164h-704v387h760v164h-940z" />
<glyph unicode="&#x396;" horiz-adv-x="1107" d="M45 0v162l789 985h-732v164h957v-160l-793 -987h793v-164h-1014z" />
<glyph unicode="&#x397;" horiz-adv-x="1310" d="M342 1311h-186v-1311h186v606h612v-606h187v1311h-187v-539h-612v539z" />
<glyph unicode="&#x398;" horiz-adv-x="1415" d="M1026 580h-639v139h639v-139zM256 643q0 -230 115 -368t329 -138q114 0 200.5 40t140 112t80 167t26.5 210q0 147 -49.5 258.5t-151.5 177t-246 65.5q-220 0 -332 -143t-112 -381zM66 639q0 313 170.5 502.5t468.5 189.5q293 0 460.5 -182.5t167.5 -482.5 q0 -201 -71.5 -356.5t-217.5 -247t-350 -91.5q-291 0 -459.5 183t-168.5 485z" />
<glyph unicode="&#x399;" horiz-adv-x="512" d="M158 1311h186v-1311h-186v1311z" />
<glyph unicode="&#x39a;" horiz-adv-x="1230" d="M154 1311h186v-693l612 693h234l-535 -598l545 -713h-217l-451 584l-188 -195v-389h-186v1311z" />
<glyph unicode="&#x39b;" horiz-adv-x="1210" d="M0 0h203l399 1104l395 -1104h203l-508 1311h-186z" />
<glyph unicode="&#x39c;" horiz-adv-x="1519" d="M158 1311v-1311h182v1055l322 -1055h172l321 1053v-1053h184v1311h-258l-331 -1096l-334 1096h-258z" />
<glyph unicode="&#x39d;" horiz-adv-x="1310" d="M160 0v1311h202l596 -1030v1030h183v-1311h-201l-600 1038v-1038h-180z" />
<glyph unicode="&#x39e;" horiz-adv-x="1054" d="M49 164l-4 -164h942v164h-938zM166 596h704v166h-704v-166zM49 1147h940v164h-940v-164z" />
<glyph unicode="&#x39f;" horiz-adv-x="1415" d="M688 -29q-194 0 -337.5 86.5t-216.5 238t-73 347.5q0 204 73 359t218.5 244t347.5 89q293 0 462 -183.5t169 -483.5q0 -148 -42 -274t-121.5 -221t-202.5 -148.5t-277 -53.5zM696 141q114 0 201 39.5t140.5 111.5t80.5 166.5t27 209.5q0 226 -116.5 363.5t-332.5 137.5 q-149 0 -250.5 -69.5t-147.5 -184.5t-46 -268q0 -226 114.5 -366t329.5 -140z" />
<glyph unicode="&#x3a0;" horiz-adv-x="1310" d="M961 0v1147h-615v-1147h-184v1311h983v-1311h-184z" />
<glyph unicode="&#x3a1;" horiz-adv-x="1210" d="M154 0v1311h501q102 0 186.5 -22t151.5 -67t104.5 -121.5t37.5 -178.5q0 -191 -128 -300.5t-329 -109.5h-338v-512h-186zM340 678h283q321 0 321 242q0 227 -289 227h-315v-469z" />
<glyph unicode="&#x3a3;" horiz-adv-x="1083" d="M750 657l-482 512h770v142h-979v-140l476 -514l-476 -516v-139h977v141h-770z" />
<glyph unicode="&#x3a4;" horiz-adv-x="1126" d="M39 1311h1046v-164h-434v-1147h-180v1147h-432v164z" />
<glyph unicode="&#x3a5;" horiz-adv-x="1210" d="M510 518l-510 793h213l393 -621l377 621h215l-504 -793v-518h-184v518z" />
<glyph unicode="&#x3a6;" horiz-adv-x="1591" d="M889 1331v238h-184v-238q-295 0 -467 -184t-172 -504q0 -312 176 -491q178 -184 463 -181v-235h184v235q297 0 473 197q166 190 166 494q0 307 -176 489q-177 183 -463 180zM889 1167q203 0 328 -137q120 -138 120 -368q0 -251 -118 -390q-119 -137 -330 -137v1032z M705 1167v-1032q-208 0 -328 135q-121 142 -121 373q0 249 121 385q118 139 328 139z" />
<glyph unicode="&#x3a7;" horiz-adv-x="1210" d="M229 0h-213l478 668l-445 643h221l330 -500l346 500h211l-438 -635l467 -676h-223l-361 530z" />
<glyph unicode="&#x3a8;" horiz-adv-x="1585" d="M883 1311h-183v-889q-199 0 -280 72q-80 71 -80 245v572h-182v-590q0 -253 131 -363q122 -102 411 -102v-256h183l2 256q290 0 407 102q133 106 133 363v590h-184v-572q0 -179 -78 -245q-81 -72 -278 -72z" />
<glyph unicode="&#x3a9;" horiz-adv-x="1437" d="M727 1331q-293 0 -465 -178q-172 -184 -172 -487q0 -400 293 -508h-305v-158h526v137q-159 39 -239 176q-86 139 -86 353q0 230 118 366q120 135 326 135q208 0 328 -135q118 -136 118 -366q0 -216 -86 -355q-84 -136 -241 -174v-137h528v158h-307q293 108 293 508 q0 306 -170 485q-168 180 -459 180z" />
<glyph unicode="&#x3aa;" horiz-adv-x="512" d="M158 1311h186v-1311h-186v1311zM328 1686h164v-213h-164v213zM18 1473v213h164v-213h-164z" />
<glyph unicode="&#x3ab;" horiz-adv-x="1210" d="M510 518l-510 793h213l393 -621l377 621h215l-504 -793v-518h-184v518zM680 1686h164v-213h-164v213zM371 1473v213h164v-213h-164z" />
<glyph unicode="&#x3ac;" horiz-adv-x="1132" d="M522 831q124 0 195 -86q78 -90 78 -266q0 -352 -273 -352q-258 0 -258 352t258 352zM969 958h-181v-145q-20 52 -100 111q-92 61 -170 61q-188 0 -307 -125q-121 -139 -121 -379q0 -226 107 -360q116 -150 321 -150q77 0 168 60q79 55 121 119q3 -179 166 -179 q44 0 100 23v125q-9 0 -19.5 -1t-17.5 -2l-8 -1q-59 0 -59 100v743zM426 1100l121 262h209l-197 -262h-133z" />
<glyph unicode="&#x3ad;" horiz-adv-x="948" d="M281 731q0 45 45 78q51 33 141 33q83 0 131 -51q47 -44 47 -99h176q0 122 -84 203q-99 90 -270 90q-178 0 -274 -78q-80 -62 -80 -157q0 -80 39 -136q41 -59 104 -77q-174 -76 -174 -248q0 -318 377 -318q200 0 307 101q94 88 94 223h-176q0 -67 -63 -127 q-66 -51 -148 -51q-217 0 -217 168q0 174 270 174v137q-245 0 -245 135zM356 1098l121 262h209l-197 -262h-133z" />
<glyph unicode="&#x3ae;" horiz-adv-x="1005" d="M905 610q0 136 -26 201q-26 77 -105 125q-76 49 -176 49q-89 0 -160 -33q-73 -36 -135 -118q0 60 -31 102q-30 49 -88 49q-71 0 -161 -20v-119q57 0 75 -6q41 -12 41 -54v-786h164v504q0 128 21 180q25 67 86.5 108.5t138.5 41.5q102 0 147 -58q45 -57 45 -194v-975h164 v1003zM426 1130l121 263h209l-197 -263h-133z" />
<glyph unicode="&#x3af;" horiz-adv-x="485" d="M123 250q0 -157 41 -219q49 -58 164 -58q12 0 28.5 1.5t43.5 4t46 3.5v139h-55q-60 0 -82 22q-22 19 -22 93v722h-164v-708zM129 1122l121 262h209l-197 -262h-133z" />
<glyph unicode="&#x3b0;" d="M494 -29q184 0 286 105q90 93 90 262v620h-163v-608q0 -233 -213 -233q-215 0 -215 233v608h-166v-620q0 -165 94 -262q95 -105 287 -105zM229 1307v-211h164v211h-164zM760 1307h-166v-211h166v211zM422 1452h125l174 238h-191z" />
<glyph unicode="&#x3b1;" horiz-adv-x="1132" d="M522 831q132 0 202.5 -98t70.5 -254q0 -352 -273 -352q-258 0 -258 352t258 352zM969 958h-181v-145q-29 74 -111.5 123t-158.5 49q-140 0 -238.5 -68.5t-144 -180t-45.5 -255.5q0 -107 26.5 -198t78 -161.5t134.5 -110.5t189 -40q77 0 168 60q79 55 121 119 q3 -179 166 -179q44 0 100 23v125q-9 0 -19.5 -1t-17.5 -2l-8 -1q-59 0 -59 100v743z" />
<glyph unicode="&#x3b2;" horiz-adv-x="1040" d="M530 -29q196 0 312 113q114 111 114 305q0 112 -77 215q-76 98 -193 129q93 19 148 101q57 82 57 180q0 321 -416 321q-202 0 -297 -118q-69 -84 -69 -191v-1419h163v475q111 -111 258 -111zM524 119q-100 0 -170 43q-82 52 -82 141v676q0 209 217 209q110 0 168 -55 q58 -52 58 -129q0 -224 -330 -224v-131q393 0 393 -258q0 -151 -57 -211q-55 -58 -197 -61z" />
<glyph unicode="&#x3b3;" horiz-adv-x="1028" d="M328 823q-50 112 -97 138q-40 24 -176 24v-131q88 0 109 -49l346 -805v-393h149v393l361 958h-168l-268 -753z" />
<glyph unicode="&#x3b4;" horiz-adv-x="1030" d="M252 479q0 163 66.5 259t189.5 96q125 0 193.5 -96t68.5 -259q0 -352 -260 -352q-122 0 -190 94.5t-68 257.5zM618 975l-294 217h526v143h-741v-143l309 -234q-167 -21 -254.5 -147.5t-87.5 -331.5q0 -232 116 -370t318 -138q199 0 316.5 138.5t117.5 369.5 q0 184 -89 321t-237 175z" />
<glyph unicode="&#x3b5;" horiz-adv-x="933" d="M281 731q0 47 48 79t138 32q73 0 125.5 -46t52.5 -104h176q0 133 -96 213t-258 80q-160 0 -257 -64.5t-97 -170.5q0 -74 38.5 -133.5t104.5 -79.5q-174 -76 -174 -248q0 -318 377 -318q183 0 292 87.5t109 236.5h-176q0 -71 -63.5 -124.5t-147.5 -53.5q-217 0 -217 168 q0 174 270 174v137q-245 0 -245 135z" />
<glyph unicode="&#x3b6;" d="M539 -29q243 0 243 -131q0 -80 -84 -211h156q80 133 80 226q0 146 -92.5 204t-302.5 58q-149 0 -209 77.5t-60 268.5q0 125 92 264.5t244.5 260.5t333.5 202v145h-739v-143h542q-152 -61 -303 -190t-249.5 -282.5t-98.5 -275.5q0 -248 107 -360.5t340 -112.5z" />
<glyph unicode="&#x3b7;" horiz-adv-x="1005" d="M905 610q0 375 -307 375q-99 0 -166 -34.5t-129 -116.5q0 63 -33.5 107t-85.5 44q-71 0 -161 -20v-119q68 0 92 -12.5t24 -47.5v-786h164v504q0 167 59.5 248.5t186.5 81.5q104 0 148 -57.5t44 -194.5v-975h164v1003z" />
<glyph unicode="&#x3b8;" horiz-adv-x="1126" d="M129 662q0 -357 104.5 -524t335.5 -167q226 0 332.5 168t106.5 523t-105.5 515t-333.5 160q-232 0 -336 -160t-104 -515zM842 586q0 -469 -273 -469q-276 0 -276 469h549zM842 737h-549q0 453 276 453q273 0 273 -453z" />
<glyph unicode="&#x3b9;" horiz-adv-x="481" d="M123 250q0 -157 41 -219q49 -58 164 -58q12 0 28.5 1.5t43.5 4t46 3.5v139h-55q-60 0 -82 22q-22 19 -22 93v722h-164v-708z" />
<glyph unicode="&#x3ba;" horiz-adv-x="911" d="M119 958v-958h166v367l127 122l284 -489h201l-373 602l367 356h-215l-391 -387v387h-166z" />
<glyph unicode="&#x3bb;" horiz-adv-x="1034" d="M743 123q33 -100 86 -129q51 -23 183 -23v125q-92 0 -113 62l-369 1026q-34 105 -106 135q-50 16 -172 16v-127q108 0 123 -49l69 -198l-409 -961h176l307 750z" />
<glyph unicode="&#x3bc;" horiz-adv-x="1050" d="M731 125q24 -83 66 -116.5t127 -33.5q43 0 86 19v125h-21q-64 0 -85 26.5t-21 96.5v716h-166v-487q0 -346 -250 -346q-108 0 -145 51.5t-37 175.5v606h-166v-1329h166v424q84 -78 170 -78q105 0 167 33t109 117z" />
<glyph unicode="&#x3bd;" horiz-adv-x="919" d="M203 956l252 -753l250 753h182l-357 -956h-165l-342 956h180z" />
<glyph unicode="&#x3be;" horiz-adv-x="970" d="M680 -371q84 133 84 215q0 127 -254 127q-223 0 -324.5 102t-101.5 322q0 116 76.5 206.5t197.5 115.5q-75 26 -126.5 96.5t-51.5 144.5q0 91 61.5 162.5t143.5 71.5h-227v143h741v-143h-281q-118 0 -190 -63.5t-72 -170.5q0 -78 43.5 -119t139.5 -53h219v-141 q-202 0 -307.5 -21.5t-149 -71.5t-43.5 -146q0 -156 57 -222.5t189 -66.5q219 0 315 -56.5t96 -203.5q0 -115 -79 -228h-156z" />
<glyph unicode="&#x3bf;" horiz-adv-x="1017" d="M76 477q0 110 26 200.5t78 159.5t136.5 107.5t193.5 38.5q143 0 242.5 -67.5t145.5 -179.5t46 -259q0 -107 -27.5 -198t-80 -160t-136.5 -108.5t-190 -39.5q-211 0 -322.5 139.5t-111.5 366.5zM510 125q123 0 189.5 94.5t66.5 267.5q0 69 -14.5 129t-43.5 110t-80 79 t-118 29q-124 0 -191 -93.5t-67 -263.5q0 -167 67 -259.5t191 -92.5z" />
<glyph unicode="&#x3c0;" horiz-adv-x="1124" d="M758 817v-567q0 -158 43 -219q42 -58 160 -58q5 0 120 9v139h-53q-62 0 -84 22q-20 20 -20 93v581h127v141h-1018v-141h125v-817h166v817h434z" />
<glyph unicode="&#x3c1;" horiz-adv-x="1046" d="M109 463v-856h163v489q132 -123 258 -123q206 0 320.5 136t114.5 368t-113.5 370t-321.5 138q-205 0 -313 -134.5t-108 -387.5zM272 477q0 165 67.5 261t190.5 96t190.5 -93t67.5 -256q0 -173 -67 -266.5t-191 -93.5q-123 0 -190.5 95t-67.5 257z" />
<glyph unicode="&#x3c2;" horiz-adv-x="995" d="M518 -29q244 0 244 -131q0 -80 -82 -211h154q79 131 79 226q0 146 -92.5 204t-302.5 58q-123 0 -191.5 96t-68.5 270q0 159 70 257t196 98q97 0 162.5 -61.5t65.5 -158.5h168q0 164 -109 265.5t-276 101.5q-207 0 -329 -141.5t-122 -386.5q0 -234 112 -360t322 -126z" />
<glyph unicode="&#x3c3;" horiz-adv-x="1091" d="M795 827h252v138h-410q-67 20 -137 20q-204 0 -320.5 -138t-116.5 -370q0 -231 117 -367.5t320 -136.5q205 0 319.5 136t114.5 368q0 229 -139 350zM240 477q0 169 68.5 263t191.5 94q122 0 190 -93t68 -256q0 -173 -67 -266.5t-191 -93.5q-123 0 -191.5 92.5 t-68.5 259.5z" />
<glyph unicode="&#x3c4;" horiz-adv-x="870" d="M516 821h309v137h-782v-137h309v-571q0 -158 41 -217q48 -60 164 -60q11 0 28 1.5t44.5 4t46.5 3.5v139h-55q-59 0 -84 22q-21 21 -21 93v585z" />
<glyph unicode="&#x3c5;" d="M494 -29q184 0 286 105q90 93 90 262v620h-163v-608q0 -233 -213 -233q-215 0 -215 233v608h-166v-620q0 -165 94 -262q95 -105 287 -105z" />
<glyph unicode="&#x3c6;" horiz-adv-x="1277" d="M553 -29v-342h164v342q233 0 356 137t123 375q0 241 -123 371.5t-356 130.5v252h-164v-252q-232 0 -354.5 -134.5t-122.5 -373.5q0 -237 123 -371.5t354 -134.5zM717 125v704q303 0 303 -344q0 -360 -303 -360zM553 125q-303 0 -303 352t303 352v-704z" />
<glyph unicode="&#x3c7;" horiz-adv-x="892" d="M780 -227l-272 573l285 612h-164l-205 -432l-137 297q-42 99 -90 129q-50 33 -181 33v-127q87 0 111 -53l213 -463l-338 -713h170l250 535l190 -397q45 -99 93 -132q49 -28 178 -28v125q-85 0 -103 41z" />
<glyph unicode="&#x3c8;" horiz-adv-x="1411" d="M782 143v1168h-164v-1168q-346 0 -346 246v569h-163v-616q0 -139 106 -231q132 -111 403 -111v-375h164v375q272 0 404 111q106 90 106 231v616h-164v-569q0 -246 -346 -246z" />
<glyph unicode="&#x3c9;" horiz-adv-x="1497" d="M748 156q83 -183 276 -183q181 0 288 136.5t107 357.5q0 304 -196 491h-176q196 -169 196 -491q0 -166 -68 -258t-186 -92q-69 0 -114.5 52t-45.5 130v367h-163v-367q0 -78 -46 -130t-116 -52q-116 0 -185 91t-69 259q0 323 201 491h-179q-196 -184 -196 -491 q0 -221 107 -357.5t288 -136.5q194 0 277 183z" />
<glyph unicode="&#x3ca;" horiz-adv-x="624" d="M229 250q0 -157 41 -219q49 -58 164 -58q12 0 29 1.5t44 4t46 3.5v139h-55q-60 0 -82 22q-23 20 -23 93v722h-164v-708zM389 1321h164v-213h-164v213zM80 1108v213h164v-213h-164z" />
<glyph unicode="&#x3cb;" d="M494 -29q184 0 286 105q90 93 90 262v620h-163v-608q0 -233 -213 -233q-215 0 -215 233v608h-166v-620q0 -165 94 -262q95 -105 287 -105zM563 1307h164v-213h-164v213zM254 1094v213h164v-213h-164z" />
<glyph unicode="&#x3cc;" horiz-adv-x="1005" d="M76 477q0 110 26 200.5t78 159.5t136.5 107.5t193.5 38.5q143 0 242.5 -67.5t145.5 -179.5t46 -259q0 -107 -27.5 -198t-80 -160t-136.5 -108.5t-190 -39.5q-211 0 -322.5 139.5t-111.5 366.5zM510 125q123 0 189.5 94.5t66.5 267.5q0 69 -14.5 129t-43.5 110t-80 79 t-118 29q-124 0 -191 -93.5t-67 -263.5q0 -167 67 -259.5t191 -92.5zM401 1092l121 262h209l-196 -262h-134z" />
<glyph unicode="&#x3cd;" d="M494 -29q184 0 286 105q90 93 90 262v620h-163v-608q0 -233 -213 -233q-215 0 -215 233v608h-166v-620q0 -165 94 -262q95 -105 287 -105zM393 1090l121 262h209l-197 -262h-133z" />
<glyph unicode="&#x3ce;" horiz-adv-x="1497" d="M748 156q83 -183 276 -183q181 0 288 136.5t107 357.5q0 304 -196 491h-176q196 -169 196 -491q0 -166 -68 -258t-186 -92q-69 0 -114.5 52t-45.5 130v367h-163v-367q0 -78 -46 -130t-116 -52q-116 0 -185 91t-69 259q0 323 201 491h-179q-196 -184 -196 -491 q0 -221 107 -357.5t288 -136.5q194 0 277 183zM692 1167l121 263h209l-197 -263h-133z" />
<glyph unicode="&#x401;" horiz-adv-x="1148" d="M336 752h688v-148h-688v-457h780v-147h-956v1311h936v-148h-760v-411zM350 1446v149h176v-149h-176zM756 1446v149h176v-149h-176z" />
<glyph unicode="&#x402;" horiz-adv-x="1366" d="M870 696q240 0 240 -323q0 -316 -238 -316v-145q180 0 293 119q117 126 117 354q0 227 -98 346q-100 115 -275 115q-160 0 -258 -137l2 438h432v164h-1044v-164h430v-1147h182l-2 526q59 170 219 170z" />
<glyph unicode="&#x403;" horiz-adv-x="921" d="M301 1147v-1147h-178v1311h756v-164h-578zM373 1513l121 263h208l-196 -263h-133z" />
<glyph unicode="&#x404;" horiz-adv-x="1265" d="M256 754h475v-181h-475q15 -205 121 -317q106 -115 280 -115q152 0 249.5 90.5t125.5 255.5h182q-27 -228 -172 -370q-155 -146 -378 -146q-282 0 -441 181q-160 183 -160 491q0 296 148 485q168 207 457 207q231 0 381 -116q144 -117 165 -318h-182q-65 268 -358 268 q-177 0 -285 -108q-113 -113 -133 -307z" />
<glyph unicode="&#x405;" horiz-adv-x="1187" d="M80 438h190q3 -104 13 -135q27 -86 119.5 -124t213.5 -38q57 0 110 11t101 33.5t76.5 64.5t28.5 98q0 98 -160 160l-399 147q-244 92 -244 301q0 93 39.5 167.5t106.5 119.5t150 68.5t175 23.5q473 0 473 -422h-190q0 132 -71.5 194t-215.5 62q-68 0 -129 -19.5 t-105.5 -65.5t-44.5 -111q0 -63 31 -91.5t109 -58.5l415 -155q244 -88 244 -301q0 -99 -43 -177t-116 -124.5t-162 -70.5t-189 -24q-526 0 -526 422v45z" />
<glyph unicode="&#x406;" horiz-adv-x="495" d="M160 1311h176v-1311h-176v1311z" />
<glyph unicode="&#x407;" horiz-adv-x="659" d="M223 1311h187v-1311h-187v1311zM371 1704h164v-213h-164v213zM61 1491v213h164v-213h-164z" />
<glyph unicode="&#x408;" horiz-adv-x="974" d="M43 434h176q2 -166 51 -245.5t176 -79.5q54 0 94 16.5t63.5 43.5t37.5 70.5t18.5 89t4.5 107.5v875h176v-858q0 -259 -91.5 -375.5t-304.5 -116.5q-401 0 -401 406v67z" />
<glyph unicode="&#x409;" horiz-adv-x="1855" d="M1769 399q0 167 -102 275q-120 129 -330 129h-272v508h-850v-645q0 -281 -47 -445q-18 -68 -88 -221h168q139 245 139 659v488h481v-1147h445q238 0 358 123q98 104 98 276zM1581 389q0 -225 -289 -225h-227v471h235q132 0 205 -64q76 -67 76 -182z" />
<glyph unicode="&#x40a;" horiz-adv-x="1835" d="M1085 631h224q132 0 204 -60q78 -66 78 -180q0 -227 -293 -227h-213v467zM307 631h594v-631h418q238 0 358 123q101 107 101 280q0 165 -103 271q-122 125 -329 125h-261v512h-184v-516h-594v516h-184v-1311h184v631z" />
<glyph unicode="&#x40b;" horiz-adv-x="1282" d="M655 694v453h430v164h-1046v-164h432v-1147h186v354q0 174 45 234q72 90 168 90q89 0 119 -55q27 -59 27 -187v-436h164v477q0 184 -47 254q-58 94 -226 94q-148 0 -252 -131z" />
<glyph unicode="&#x40c;" horiz-adv-x="1167" d="M121 1311h186v-693l613 693h233l-535 -598l545 -713h-217l-450 584l-189 -195v-389h-186v1311zM461 1475l121 262h209l-197 -262h-133z" />
<glyph unicode="&#x40e;" horiz-adv-x="1101" d="M608 522l316 789h186l-444 -1078q-22 -52 -46.5 -92t-47 -66t-50 -44.5t-48.5 -28t-50 -14t-46 -5.5t-46 -1q-78 0 -146 18v154q61 -21 123 -21q26 0 45 3t43.5 14t43.5 31t39 56.5t36 88.5l-500 985h215zM229 1645h138q5 -62 51 -105t133 -43t133 43t51 105h137 q-5 -32 -17 -63.5t-36.5 -65.5t-59 -59t-88.5 -41.5t-120 -16.5q-82 0 -144.5 24t-98 63t-54 78t-25.5 81z" />
<glyph unicode="&#x40f;" horiz-adv-x="1245" d="M678 0h428v1311h-184v-1147h-615v1147h-184v-1311h403v-207h152v207z" />
<glyph unicode="&#x410;" horiz-adv-x="1169" d="M389 537l201 575l194 -575h-395zM504 1311l-504 -1311h195l137 389h504l133 -389h198l-473 1311h-190z" />
<glyph unicode="&#x411;" horiz-adv-x="1175" d="M307 1141v-334h340q193 0 312.5 -101.5t119.5 -283.5q0 -197 -124.5 -309.5t-333.5 -112.5h-498v1311h825v-170h-641zM610 641h-303v-477h293q126 0 208.5 59.5t82.5 177.5t-78 179t-203 61z" />
<glyph unicode="&#x412;" horiz-adv-x="1206" d="M854 948q0 106 -60 152.5t-198 46.5h-289v-383h303q244 0 244 184zM1098 379q0 -74 -17.5 -133t-45 -98t-69.5 -67.5t-81.5 -43.5t-91 -24t-89 -11t-83.5 -2h-498v1311h481q218 0 309 -74q129 -101 129 -264q0 -91 -64 -173.5t-151 -109.5q120 -12 195.5 -100t75.5 -211z M621 600h-314v-436h293q309 0 309 219q0 217 -288 217z" />
<glyph unicode="&#x413;" horiz-adv-x="917" d="M301 1147v-1147h-178v1311h756v-164h-578z" />
<glyph unicode="&#x414;" horiz-adv-x="1363" d="M1036 0h-698q-104 0 -119 -102l-18 -121h-152v387h115q96 143 96 446v701h934v-1147h119v-387h-139l-19 121q-15 102 -119 102zM338 164h661v983h-548v-541q0 -263 -113 -442z" />
<glyph unicode="&#x415;" horiz-adv-x="1169" d="M121 1311v-1311h940v164h-760v432h705v164h-705v387h760v164h-940z" />
<glyph unicode="&#x416;" horiz-adv-x="1650" d="M221 1311l512 -649v649h180v-649l508 649h201l-442 -568l467 -743h-215l-365 602l-154 -182v-420h-180v420l-153 178l-367 -598h-213l463 737l-440 574h198z" />
<glyph unicode="&#x417;" horiz-adv-x="1071" d="M694 707q118 -15 198.5 -107.5t80.5 -220.5q0 -200 -127.5 -304t-335.5 -104q-120 0 -219 42t-161 128.5t-62 204.5h174q0 -92 78.5 -151.5t175.5 -59.5q128 0 207 63t79 185q0 100 -64 163.5t-165 63.5h-111v154h70q104 0 160.5 48.5t56.5 135.5q0 105 -64.5 163 t-172.5 58q-207 0 -250 -186h-176q32 165 147.5 258.5t280.5 93.5q189 0 306.5 -92.5t117.5 -269.5q0 -96 -63 -169t-161 -97z" />
<glyph unicode="&#x418;" horiz-adv-x="1316" d="M952 985l-581 -985h-248v1311h184v-1112l64 133l573 979h252v-1311h-186v1102z" />
<glyph unicode="&#x419;" horiz-adv-x="1316" d="M952 985l-581 -985h-248v1311h184v-1112l64 133l573 979h252v-1311h-186v1102zM408 1436v125h473v-125h-473z" />
<glyph unicode="&#x41a;" horiz-adv-x="1167" d="M121 1311h186v-693l613 693h233l-535 -598l545 -713h-217l-450 584l-189 -195v-389h-186v1311z" />
<glyph unicode="&#x41b;" horiz-adv-x="1120" d="M1120 0h-192l-365 1112l-366 -1112h-195l471 1315h176z" />
<glyph unicode="&#x41c;" horiz-adv-x="1611" d="M150 0v1311h262l391 -1094l395 1094h258v-1311h-186v1049l-385 -1049h-168l-381 1053v-1053h-186z" />
<glyph unicode="&#x41d;" horiz-adv-x="1226" d="M307 1311h-186v-1311h186v606h613v-606h186v1311h-186v-539h-613v539z" />
<glyph unicode="&#x41e;" horiz-adv-x="1431" d="M707 -29q-194 0 -337.5 86.5t-216.5 238t-73 347.5q0 204 73 359t218.5 244t347.5 89q293 0 462 -183.5t169 -483.5q0 -148 -42 -274t-121.5 -221t-202.5 -148.5t-277 -53.5zM715 141q151 0 253.5 70t148.5 186t46 271q0 226 -116 363.5t-332 137.5q-112 0 -198.5 -39.5 t-139.5 -110.5t-80 -165t-27 -207q0 -226 115 -366t330 -140z" />
<glyph unicode="&#x41f;" horiz-adv-x="1226" d="M922 0v1147h-615v-1147h-184v1311h983v-1311h-184z" />
<glyph unicode="&#x420;" horiz-adv-x="1177" d="M123 0v1311h479q102 0 186.5 -22t150.5 -67t103 -121.5t37 -178.5q0 -193 -129 -309.5t-327 -116.5h-316v-496h-184zM307 662h262q320 0 320 258q0 227 -287 227h-295v-485z" />
<glyph unicode="&#x421;" horiz-adv-x="1316" d="M1051 901h180q-10 109 -56.5 193.5t-120.5 136t-166.5 78t-199.5 26.5q-189 0 -327.5 -89t-209.5 -245t-71 -358q0 -135 34.5 -252.5t104.5 -213t188.5 -151t274.5 -55.5q223 0 376 145t173 371h-180q-26 -165 -125 -255.5t-252 -90.5q-134 0 -227 67.5t-136 180.5 t-43 262q0 109 25 201t75 164t132.5 112.5t189.5 40.5q296 0 361 -268z" />
<glyph unicode="&#x422;" horiz-adv-x="1126" d="M39 1311h1046v-164h-434v-1147h-180v1147h-432v164z" />
<glyph unicode="&#x423;" horiz-adv-x="1060" d="M870 1311h193l-432 -1037q-26 -62 -49.5 -104.5t-60 -84.5t-86.5 -63.5t-113 -21.5h-115v158h76q102 0 147 96l33 72l-453 985h205l344 -768z" />
<glyph unicode="&#x424;" horiz-adv-x="1624" d="M719 141v1028q-211 0 -330 -138t-119 -384q0 -234 121 -370t328 -136zM1354 668q0 233 -121.5 367t-327.5 134v-1028q209 0 329 139t120 388zM719 1335v164h186v-164q288 0 464.5 -181t176.5 -486q0 -197 -74.5 -352.5t-221.5 -248.5t-345 -96v-166h-186v166 q-290 0 -465.5 183t-175.5 489q0 317 173.5 504.5t467.5 187.5z" />
<glyph unicode="&#x425;" horiz-adv-x="1171" d="M213 0h-213l477 668l-444 643h221l330 -500l346 500h211l-439 -635l467 -676h-223l-360 530z" />
<glyph unicode="&#x426;" horiz-adv-x="1280" d="M948 0h-825v1311h184v-1147h615v1147h184v-1147h121v-387h-140l-18 121q-17 102 -121 102z" />
<glyph unicode="&#x427;" horiz-adv-x="1206" d="M901 0v586q-47 -68 -152.5 -111t-201.5 -43q-201 0 -324 120.5t-123 324.5v434h187v-432q0 -120 78 -204.5t200 -84.5q225 0 336 172v549h184v-1311h-184z" />
<glyph unicode="&#x428;" horiz-adv-x="1808" d="M995 164h506v1147h185v-1311h-1565v1311h184v-1147h506v1147h184v-1147z" />
<glyph unicode="&#x429;" horiz-adv-x="1859" d="M1526 0h-1405v1311h184v-1147h506v1147h184v-1147h506v1147h185v-1147h116v-389h-139l-18 123q-6 47 -37.5 74.5t-81.5 27.5z" />
<glyph unicode="&#x42a;" horiz-adv-x="1275" d="M432 1311v-482h338q189 0 311.5 -107t122.5 -290q0 -206 -124 -319t-335 -113h-499v1155h-246v156h432zM735 664h-303v-500h293q125 0 208 67t83 189q0 118 -78.5 181t-202.5 63z" />
<glyph unicode="&#x42b;" horiz-adv-x="1558" d="M307 1311v-482h338q191 0 312.5 -105t121.5 -292q0 -203 -124 -317.5t-334 -114.5h-498v1311h184zM608 664h-301v-500h293q126 0 208.5 67.5t82.5 188.5q0 116 -75.5 180t-207.5 64zM1440 0h-185v1311h185v-1311z" />
<glyph unicode="&#x42c;" horiz-adv-x="1134" d="M307 1311v-482h338q191 0 312.5 -104.5t121.5 -292.5q0 -203 -124 -317.5t-334 -114.5h-498v1311h184zM608 664h-301v-500h293q125 0 208 68t83 188q0 116 -75.5 180t-207.5 64z" />
<glyph unicode="&#x42d;" horiz-adv-x="1265" d="M543 754h475q-24 191 -130 302.5t-288 112.5q-293 0 -358 -268h-183q23 210 173.5 322t375.5 112q118 0 216.5 -35.5t169 -98.5t119.5 -150t73 -190t24 -218q0 -146 -38 -268.5t-111.5 -212.5t-189 -140.5t-261.5 -50.5q-225 0 -374.5 143.5t-176.5 372.5h183 q26 -165 124 -255.5t250 -90.5q181 0 285.5 119t116.5 313h-475v181z" />
<glyph unicode="&#x42e;" horiz-adv-x="1789" d="M1516 668q0 225 -114.5 363t-328.5 138q-223 0 -336.5 -142t-113.5 -380q0 -228 116 -365t334 -137q110 0 195.5 39.5t139 110.5t81 165.5t27.5 207.5zM436 623h-131v-623h-186v1311h186v-547h135q32 271 199 421t434 150q195 0 339 -84t218 -233t74 -346 q0 -117 -26 -222t-78.5 -192.5t-127 -151.5t-177 -99.5t-222.5 -35.5q-296 0 -466.5 177t-170.5 475z" />
<glyph unicode="&#x42f;" horiz-adv-x="1193" d="M1061 0h-184v561h-275q-116 0 -184.5 -61.5t-106.5 -175.5l-43 -125q-5 -15 -25.5 -80t-43.5 -119h-203q15 25 26.5 46.5t20.5 43.5t14 35t14 37.5t13 34.5l61 170q33 93 108.5 174.5t180.5 109.5q-54 4 -105.5 23.5t-97 54.5t-73 93.5t-27.5 131.5q0 45 11.5 89.5 t44.5 94t84.5 87t138.5 62t198 24.5h453v-1311zM877 725v422h-297q-124 0 -184 -44t-60 -163t64 -167t192 -48h285z" />
<glyph unicode="&#x430;" horiz-adv-x="1030" d="M479 842q-213 0 -213 -183h-162q0 159 105 241.5t278 82.5q176 0 271.5 -70t95.5 -233v-457q0 -102 55 -102q28 0 60 16v-131q-59 -35 -113 -35q-136 0 -154 158q-152 -158 -329 -158q-137 0 -222 78.5t-85 212.5q0 140 112 217q70 50 194.5 74.5t317.5 40.5v57 q0 191 -211 191zM690 346v131q-262 -30 -354 -71q-98 -43 -98 -142q0 -143 176 -143q66 0 127 25.5t103.5 78.5t45.5 121z" />
<glyph unicode="&#x431;" horiz-adv-x="1040" d="M801 442q0 142 -66.5 230t-199.5 88q-127 0 -198 -84.5t-71 -216.5q0 -158 66 -245t194 -87q124 0 199.5 90.5t75.5 224.5zM565 911q184 0 297 -122.5t113 -313.5q0 -145 -49.5 -258t-150.5 -179.5t-240 -66.5q-207 0 -321 109.5t-114 312.5v527q0 181 104.5 291.5 t311.5 140.5q147 22 399 84v-146q-121 -46 -331 -76q-60 -9 -116.5 -31t-108 -58t-82.5 -92.5t-31 -125.5v-180q37 89 123 136.5t196 47.5z" />
<glyph unicode="&#x432;" horiz-adv-x="1007" d="M365 729q105 6 158 28t102 81q53 62 53 166q0 102 -52.5 154t-144.5 52q-211 0 -211 -221v-653q0 -102 62.5 -159.5t167.5 -57.5q250 0 250 252q0 118 -78.5 186t-179.5 68q-60 0 -127 -13v117zM100 367v614q0 360 379 360q158 0 266.5 -84.5t108.5 -232.5 q0 -122 -85 -218t-214 -108h10q157 0 260 -84.5t103 -220.5q0 -112 -32.5 -195t-92.5 -131.5t-136 -72t-171 -23.5q-180 0 -288 107.5t-108 288.5z" />
<glyph unicode="&#x433;" horiz-adv-x="909" d="M463 123q105 0 150.5 43.5t48.5 146.5h174q0 -342 -381 -342q-379 0 -379 291q0 53 21 97.5t52 74t81.5 56t95 42t106.5 33.5q51 14 80.5 25t62 29.5t47.5 44.5t15 61q0 48 -47 79.5t-121 31.5q-203 0 -209 -156h-168q0 96 55 166.5t138.5 103.5t181.5 33q352 0 352 -244 q0 -55 -18 -99t-45 -73t-74 -55t-89.5 -42t-107.5 -36q-51 -16 -76.5 -25t-59 -25.5t-48.5 -33t-26 -42t-11 -58.5q0 -127 199 -127z" />
<glyph unicode="&#x434;" horiz-adv-x="1017" d="M733 827v129h164v-811q0 -104 -11.5 -184t-39.5 -148.5t-75 -112.5t-119.5 -68.5t-170.5 -24.5q-170 0 -257 69.5t-107 223.5h164q20 -79 64 -111.5t132 -32.5q136 0 196 94.5t60 301.5q-119 -152 -280 -152q-96 0 -169 36t-117 100t-65.5 145.5t-21.5 179.5 q0 105 22 196.5t66 165.5t118.5 117t170.5 43q169 0 276 -156zM496 150q83 0 138 48t77 118.5t22 160.5q0 65 -13 125.5t-39.5 114t-74.5 85.5t-110 32q-65 0 -113 -31.5t-74 -84.5t-38.5 -113.5t-12.5 -127.5q0 -157 62.5 -242t175.5 -85z" />
<glyph unicode="&#x435;" horiz-adv-x="1030" d="M948 504v-78h-690q18 -301 264 -301q198 0 242 188h172q-31 -155 -145.5 -248.5t-272.5 -93.5q-107 0 -191.5 39t-138 108t-81 160.5t-27.5 198.5q0 145 50 258t153.5 180.5t246.5 67.5q108 0 189.5 -36.5t130.5 -102t73.5 -151t24.5 -189.5zM526 834q-237 0 -264 -261 h518q-9 123 -75.5 192t-178.5 69z" />
<glyph unicode="&#x436;" horiz-adv-x="1386" d="M217 956l330 -348l57 -67v770h168v-770l55 67l330 348h211l-364 -385l385 -571h-203l-297 457l-117 -115v-342h-168v342l-115 111l-301 -453h-200l383 571l-365 385h211z" />
<glyph unicode="&#x437;" horiz-adv-x="870" d="M586 502q91 -6 157 -70t66 -153q0 -80 -32.5 -141t-88.5 -96.5t-125 -53t-149 -17.5q-73 0 -136 18.5t-113 55.5t-79 97.5t-29 138.5h162q15 -162 207 -162q97 0 151 41t54 116q0 148 -168 148h-92v123h69q72 0 119 43t47 112q0 67 -55.5 108.5t-130.5 41.5 q-167 0 -193 -158h-159q34 289 344 289q178 0 270 -66.5t92 -197.5q0 -87 -48.5 -145.5t-139.5 -71.5z" />
<glyph unicode="&#x438;" horiz-adv-x="1007" d="M121 956h166v-608q0 -125 43 -174q40 -49 141 -49q127 0 197 104q57 85 57 242v485h164v-956h-164v150q-77 -179 -293 -179q-311 0 -311 371v614z" />
<glyph unicode="&#x439;" horiz-adv-x="1007" d="M373 1198h262v-137h-262v137zM121 956h166v-608q0 -125 43 -174q40 -49 141 -49q127 0 197 104q57 85 57 242v485h164v-956h-164v150q-77 -179 -293 -179q-311 0 -311 371v614z" />
<glyph unicode="&#x43a;" horiz-adv-x="925" d="M117 0v1311h164v-776l372 421h217l-366 -387l393 -569h-203l-309 446l-104 -98v-348h-164z" />
<glyph unicode="&#x43b;" horiz-adv-x="913" d="M0 0l365 956h184l364 -956h-184l-278 760l-267 -760h-184z" />
<glyph unicode="&#x43c;" horiz-adv-x="1249" d="M80 0v956h266l262 -749l262 749h265v-956h-166v815l-19 -61l-268 -754h-150l-286 815v-815h-166z" />
<glyph unicode="&#x43d;" horiz-adv-x="1007" d="M287 565h438v391h164v-956h-164v426h-438v-426h-164v956h164v-391z" />
<glyph unicode="&#x43e;" horiz-adv-x="1017" d="M76 477q0 110 26 200.5t78 159.5t136.5 107.5t193.5 38.5q143 0 242.5 -67.5t145.5 -179.5t46 -259q0 -107 -27.5 -198t-80 -160t-136.5 -108.5t-190 -39.5q-211 0 -322.5 139.5t-111.5 366.5zM510 125q123 0 190.5 94.5t67.5 267.5q0 93 -24.5 168.5t-84.5 127 t-149 51.5q-124 0 -191 -93.5t-67 -263.5q0 -167 67 -259.5t191 -92.5z" />
<glyph unicode="&#x43f;" horiz-adv-x="1007" d="M123 0v956h164v-122q64 81 129.5 115t161.5 34q95 0 174 -45t110 -127q21 -79 21 -201v-610h-164v578q0 132 -40.5 194t-152.5 62q-75 0 -137.5 -42.5t-87.5 -111.5q-14 -41 -14 -176v-504h-164z" />
<glyph unicode="&#x440;" horiz-adv-x="1017" d="M121 -369v1325h166v-112q65 76 125.5 107.5t152.5 31.5q98 0 171.5 -40.5t116 -110.5t63 -155.5t20.5 -184.5q0 -101 -22.5 -192t-67.5 -165.5t-120 -118.5t-171 -45q-154 0 -268 129v-469h-166zM281 477q0 -69 12 -128.5t38.5 -111.5t75 -82t115.5 -30q66 0 115 30.5 t75.5 82.5t39 111.5t12.5 127.5q0 71 -13 132.5t-40.5 113t-76 81.5t-112.5 30q-114 0 -177.5 -94.5t-63.5 -262.5z" />
<glyph unicode="&#x441;" horiz-adv-x="997" d="M750 346h168q-9 -164 -119 -269.5t-277 -105.5q-215 0 -328.5 133t-113.5 357q0 153 46 268t147 184.5t249 69.5q165 0 273 -96.5t123 -259.5h-168q-47 207 -228 207q-70 0 -122.5 -27.5t-82.5 -76t-44.5 -108t-14.5 -130.5q0 -367 264 -367q172 0 228 221z" />
<glyph unicode="&#x442;" horiz-adv-x="1499" d="M125 956h164v-116q74 76 131.5 109.5t146.5 33.5q152 0 242 -143q64 72 128.5 107.5t156.5 35.5q288 0 288 -332v-651h-163v623q0 211 -162 211q-67 0 -123.5 -38.5t-77.5 -101.5q-20 -65 -20 -184v-510h-164v604q0 47 -3 78.5t-11.5 62.5t-24.5 49t-42.5 29t-64.5 11 q-161 0 -219 -158q-18 -44 -18 -162v-514h-164v956z" />
<glyph unicode="&#x443;" horiz-adv-x="905" d="M203 956l256 -757l248 757h180l-381 -1062q-54 -148 -88 -191q-65 -96 -172 -96q-74 0 -137 16v158q61 -25 98 -25q57 0 84 41q26 37 80 183l-355 976h187z" />
<glyph unicode="&#x444;" horiz-adv-x="1241" d="M539 834q-128 0 -208.5 -93.5t-80.5 -259.5q0 -163 81 -259.5t208 -96.5v709zM539 -369v340q-207 0 -337 139t-130 371q0 234 129 367t338 133v330h163v-330q209 0 338 -133t129 -367q0 -232 -131 -371t-336 -139v-340h-163zM702 125q128 0 208.5 95t80.5 261 q0 159 -82.5 256t-206.5 97v-709z" />
<glyph unicode="&#x445;" horiz-adv-x="874" d="M344 492l-317 464h209l208 -329l213 329h207l-319 -452l336 -504h-207l-230 367l-233 -367h-201z" />
<glyph unicode="&#x446;" horiz-adv-x="1091" d="M123 956h164v-606q0 -119 38 -172t146 -53q67 0 117 28.5t79.5 77.5t43.5 109.5t14 130.5v485h164v-694q0 -92 28 -122.5t113 -30.5h23v-310h-107v76q0 31 -5 52.5t-18.5 35.5t-26 21.5t-40.5 11t-46.5 4t-59.5 0.5v162q-95 -191 -318 -191q-309 0 -309 371v614z" />
<glyph unicode="&#x447;" horiz-adv-x="987" d="M100 956h166v-297q0 -227 205 -227q93 0 160 61t67 162v301h168v-956h-168v451q-34 -74 -118.5 -119t-169.5 -45q-169 0 -239.5 92.5t-70.5 271.5v305z" />
<glyph unicode="&#x448;" horiz-adv-x="1462" d="M1217 0v117q-76 -83 -135 -114.5t-144 -31.5q-83 0 -137.5 33.5t-104.5 112.5q-72 -82 -134 -114t-148 -32q-291 0 -291 334v651h166v-622q0 -109 38 -159t122 -50q67 0 124.5 38t75.5 97q21 68 21 184v512h166v-604q0 -131 31 -179t116 -48q73 0 133 42.5t84 113.5 q12 34 14.5 57.5t2.5 103.5v514h165v-956h-165z" />
<glyph unicode="&#x449;" horiz-adv-x="1560" d="M1380 260q0 -92 29 -121.5t113 -29.5h22v-310h-106v76q0 43 -10.5 69.5t-34.5 38t-47.5 14.5t-65.5 3h-37q0 133 -2 162q-50 -81 -137 -136t-168 -55q-83 0 -137.5 33.5t-104.5 112.5q-70 -82 -133 -114t-151 -32q-152 0 -220.5 89.5t-68.5 244.5v651h166v-622 q0 -109 37 -159t120 -50q68 0 125.5 38.5t77.5 96.5q21 71 21 184v512h166v-604q0 -130 30.5 -178.5t110.5 -48.5q77 0 138 42t87 114q14 43 14 108v567h166v-696z" />
<glyph unicode="&#x44a;" horiz-adv-x="1024" d="M586 733q161 0 261.5 -97.5t100.5 -256.5q0 -192 -96 -300t-285 -108q-358 0 -358 342v496h-209v147h373v-294q109 71 213 71zM776 346q0 96 -49 167t-137 71q-111 0 -217 -56v-231q0 -178 205 -178q93 0 145.5 65.5t52.5 161.5z" />
<glyph unicode="&#x44b;" horiz-adv-x="1179" d="M498 733q156 0 260 -101.5t104 -252.5q0 -190 -98.5 -299t-284.5 -109q-356 0 -356 342v643h164v-294q103 71 211 71zM690 346q0 95 -49.5 166.5t-136.5 71.5q-116 0 -217 -56v-231q0 -178 205 -178q89 0 143.5 66.5t54.5 160.5zM944 956h166v-956h-166v956z" />
<glyph unicode="&#x44c;" horiz-adv-x="927" d="M498 733q157 0 260.5 -101t103.5 -253q0 -190 -98.5 -299t-284.5 -109q-356 0 -356 342v643h164v-294q103 71 211 71zM690 346q0 95 -49.5 166.5t-136.5 71.5q-116 0 -217 -56v-231q0 -178 205 -178q89 0 143.5 67t54.5 160z" />
<glyph unicode="&#x44d;" d="M39 346h170q53 -221 229 -221q233 0 260 293h-284v147h280q-10 127 -78.5 198t-177.5 71q-185 0 -229 -207h-170q15 163 123.5 259.5t275.5 96.5q148 0 248.5 -70t145.5 -185t45 -267q0 -223 -112.5 -356.5t-328.5 -133.5q-168 0 -276 101t-121 274z" />
<glyph unicode="&#x44e;" horiz-adv-x="1388" d="M610 479q0 -72 14 -133t43.5 -112t82 -80t122.5 -29q123 0 190.5 94.5t67.5 267.5q0 71 -14.5 131.5t-44.5 110t-81 77.5t-118 28q-124 0 -193 -94.5t-69 -260.5zM438 401h-137v-401h-178v1311h178v-746h141q19 200 131 309t299 109q108 0 192 -38t136.5 -106.5 t79.5 -159.5t27 -200q0 -145 -46 -257.5t-146 -181.5t-243 -69q-192 0 -306 117t-128 313z" />
<glyph unicode="&#x44f;" horiz-adv-x="870" d="M451 956h299v-956h-168v346h-183l-178 -346h-209l240 387q-180 79 -180 272q0 74 30.5 132.5t84 93.5t120.5 53t144 18zM582 481v324h-168q-69 0 -117.5 -47.5t-48.5 -118.5q0 -68 48.5 -113t117.5 -45h168z" />
<glyph unicode="&#x451;" horiz-adv-x="1071" d="M817 276h158q-10 -44 -25.5 -83t-48 -83t-75.5 -75t-111.5 -51.5t-153.5 -20.5q-107 0 -191.5 29t-138 77t-88.5 115t-49 138t-14 151q0 52 5.5 101t19.5 101.5t36 97t57.5 85.5t82 69t111.5 45t143 17q224 0 340 -128t116 -376v-47h-737q1 -65 18 -125.5t50.5 -114.5 t94 -87t138.5 -33q210 0 262 198zM254 555h563q-20 175 -83.5 246t-184.5 71q-69 0 -122.5 -23t-84.5 -56t-51 -79t-27.5 -83t-9.5 -76zM246 1139v172h164v-172h-164zM684 1139v172h164v-172h-164z" />
<glyph unicode="&#x452;" horiz-adv-x="993" d="M0 1202h121v109h166v-109h239v-133h-239v-360q94 137 258 137q177 0 272 -115q101 -119 101 -346q0 -228 -117 -354q-113 -119 -291 -119v145q235 0 235 316q0 323 -239 323q-160 0 -219 -170v-526h-166v1069h-121v133z" />
<glyph unicode="&#x453;" horiz-adv-x="917" d="M463 123q105 0 150.5 43.5t48.5 146.5h174q0 -342 -381 -342q-379 0 -379 291q0 53 21 97.5t52 74t81.5 56t95 42t106.5 33.5q51 14 80.5 25t62 29.5t47.5 44.5t15 61q0 48 -47 79.5t-121 31.5q-203 0 -209 -156h-168q0 96 55 166.5t138.5 103.5t181.5 33q352 0 352 -244 q0 -55 -18 -99t-45 -73t-74 -55t-89.5 -42t-107.5 -36q-51 -16 -76.5 -25t-59 -25.5t-48.5 -33t-26 -42t-11 -58.5q0 -127 199 -127zM401 1081l121 262h209l-196 -262h-134z" />
<glyph unicode="&#x454;" d="M850 129q-122 -158 -324 -158q-211 0 -325 129q-117 129 -117 361q0 247 117 385q116 137 321 137q165 0 275 -96q107 -94 125 -260h-170q-44 207 -230 207q-109 0 -177.5 -71t-78.5 -198h281v-147h-285q30 -293 260 -293q177 0 230 221h170q-18 -141 -72 -217z" />
<glyph unicode="&#x455;" horiz-adv-x="921" d="M72 313h172q0 -100 50 -144t161 -44q94 0 150.5 37.5t56.5 99.5q0 55 -93 96l-301 129q-172 73 -172 215q0 90 53.5 155.5t133 95.5t172.5 30q100 0 178.5 -33t127.5 -103t50 -167h-170q-6 154 -190 154q-69 0 -126 -29t-57 -86q0 -54 82 -88l279 -113q117 -47 163 -96 t46 -135q0 -78 -32 -139.5t-86.5 -99.5t-122.5 -57.5t-144 -19.5q-183 0 -282 89t-99 253z" />
<glyph unicode="&#x456;" horiz-adv-x="428" d="M131 952h166v-952h-166v952zM131 1139v172h166v-172h-166z" />
<glyph unicode="&#x457;" horiz-adv-x="501" d="M166 954h164v-954h-164v954zM317 1343h164v-213h-164v213zM8 1130v213h164v-213h-164z" />
<glyph unicode="&#x458;" horiz-adv-x="432" d="M137 952h164v-1040q0 -135 -48.5 -200.5t-174.5 -65.5q-17 0 -109 8v115q34 6 55.5 10t41.5 11t30.5 10.5t19.5 14t12.5 16t6 23t2.5 28.5v38v12v1020zM137 1139v172h164v-172h-164z" />
<glyph unicode="&#x459;" horiz-adv-x="1439" d="M1208 324q0 -93 -52.5 -149t-145.5 -56q-203 0 -203 178v184q110 58 217 58q87 0 137 -62q47 -56 47 -153zM807 956h-565q0 -583 -211 -956h164q72 118 124 309q65 242 68 510h254v-506q0 -342 356 -342q383 0 383 385q0 120 -73 211q-101 119 -289 119q-110 0 -211 -72 v342z" />
<glyph unicode="&#x45a;" horiz-adv-x="1499" d="M1266 324q0 -93 -53 -149t-144 -56q-205 0 -205 178v184q110 58 217 58q87 0 140 -62q45 -61 45 -153zM698 956v-354h-411v354h-164v-956h164v463h411v-150q0 -342 357 -342q383 0 383 385q0 119 -74 211q-101 119 -289 119q-107 0 -211 -72v342h-166z" />
<glyph unicode="&#x45b;" horiz-adv-x="1005" d="M37 1202v-133h84v-1069h166v510q0 156 49 223q79 101 201 101q100 0 141 -56t41 -188v-590h164v631q0 352 -310 352q-163 0 -286 -129v215h157v133h-157v109h-166v-109h-84z" />
<glyph unicode="&#x45c;" horiz-adv-x="925" d="M117 0v1311h164v-776l372 421h217l-366 -387l393 -569h-203l-309 446l-104 -98v-348h-164zM424 1081l121 262h209l-197 -262h-133z" />
<glyph unicode="&#x45e;" horiz-adv-x="933" d="M170 -344v121q49 -8 84 -8q34 0 58.5 11t42 38t26 47t22.5 63l23 72l-414 952h197l307 -770l252 770h166l-379 -1065q-2 -4 -11 -31.5t-13 -36.5t-15 -34.5t-19.5 -36.5t-23 -31t-30.5 -29.5t-36.5 -21t-46 -16t-55.5 -4.5q-91 0 -135 10zM143 1311h140q5 -62 51 -105 t133 -43t133 43t51 105h137q-5 -32 -17 -63.5t-36.5 -65.5t-59 -59t-88.5 -41.5t-120 -16.5q-83 0 -145.5 24t-98 63.5t-54 78t-26.5 80.5z" />
<glyph unicode="&#x45f;" horiz-adv-x="1007" d="M725 137h-438v819h-164v-956h313v-211h150v211h303v956h-164v-819z" />
<glyph unicode="&#x472;" horiz-adv-x="1421" d="M84 655q0 169 46 302t130 219t198.5 131t252.5 45q93 0 178 -20.5t168 -71.5t143.5 -128t97.5 -199.5t37 -277.5q0 -141 -31.5 -254t-77.5 -184t-112.5 -123t-122.5 -76.5t-122.5 -38.5t-97 -16t-60.5 -2q-23 0 -44.5 1t-68.5 8t-88 18.5t-95 36.5t-98 58.5t-89 87 t-75.5 120t-49.5 160.5t-19 204zM276 733h871q-2 32 -6.5 63.5t-17.5 80.5t-31.5 90.5t-52.5 86.5t-77 76t-108 51.5t-143 20.5q-96 0 -172.5 -31t-122.5 -78.5t-78 -113t-45 -124.5t-17 -122zM1147 584h-873q1 -28 4 -58.5t14 -79t29 -92t51.5 -90t77.5 -79.5t111.5 -54.5 t149.5 -21.5q100 0 178 33t124.5 82.5t77 116t42.5 125t14 118.5z" />
<glyph unicode="&#x473;" horiz-adv-x="1067" d="M66 477q0 88 17.5 165t54 141t91 109.5t131.5 71t172 25.5q116 0 206.5 -39t147.5 -109t86 -162t29 -202q0 -104 -24 -188.5t-59.5 -137t-86.5 -91t-93 -56.5t-92 -28t-71.5 -11.5t-42.5 -1.5q-117 0 -207 39.5t-146 109.5t-84.5 162.5t-28.5 202.5zM242 541h583 q-4 48 -13.5 90.5t-31 88t-52.5 78t-81.5 53.5t-114.5 21t-114 -21t-80.5 -53.5t-51.5 -78t-30.5 -88t-13.5 -90.5zM825 424h-583q2 -42 9 -82t27 -90.5t50 -87t83 -61.5t121 -25q70 0 123.5 25.5t83.5 62t50 87t27 90t9 81.5z" />
<glyph unicode="&#x490;" horiz-adv-x="890" d="M301 0v1147h578v326h-121l-19 -162h-616v-1311h178z" />
<glyph unicode="&#x491;" horiz-adv-x="712" d="M287 803h360v311h-133l-16 -158h-375v-956h164v803z" />
<glyph unicode="&#x492;" horiz-adv-x="1046" d="M365 737h411v-149h-411v-588h-179v588h-186v149h186v574h838v-148h-659v-426z" />
<glyph unicode="&#x493;" horiz-adv-x="811" d="M299 836v-308h283v-116h-283v-412h-164v412h-153v116h153v424h651v-116h-487z" />
<glyph unicode="&#x496;" horiz-adv-x="1810" d="M762 0v653l-555 -653h-215l606 702l-580 609h211l533 -576v576h176v-576l535 576h210l-579 -609l477 -555h205l-12 -444h-154v297h-125l-557 653v-653h-176z" />
<glyph unicode="&#x497;" horiz-adv-x="1363" d="M575 0v471l-378 -471h-205l438 500l-414 452h195l364 -432v432h164v-432l365 432h194l-411 -452l336 -383h133l-13 -365h-139v248h-86l-379 471v-471h-164z" />
<glyph unicode="&#x498;" horiz-adv-x="1249" d="M84 403h176q23 -294 373 -294q93 0 160.5 24t102 64t50 82.5t15.5 89.5q0 247 -299 247h-173v148h156q21 0 40.5 1.5t53.5 7t61 20t53 36t41 59t15 85.5q0 47 -14.5 84t-35.5 60.5t-52.5 40.5t-57.5 25.5t-59.5 13t-49 5t-34.5 0.5t-34.5 -0.5t-50 -5.5t-61.5 -14 t-61 -27.5t-56.5 -44.5t-40 -68t-19.5 -94h-177q26 404 515 404q219 0 344 -93t125 -276q0 -107 -61.5 -186.5t-162.5 -98.5v-4q275 -61 275 -342q0 -117 -59.5 -206t-155 -134t-209.5 -47v-319h-168v317q-235 18 -346 134t-119 306z" />
<glyph unicode="&#x499;" horiz-adv-x="968" d="M59 293h158q2 -89 67.5 -152t186.5 -63q112 0 179 47.5t67 140.5q0 47 -18.5 81t-42 50.5t-58.5 26t-54 11t-42 1.5h-140v117h121q199 0 199 147q0 19 -3 37.5t-16 44.5t-35 44.5t-63.5 32t-97.5 13.5q-66 0 -113.5 -19t-69.5 -49.5t-31.5 -58t-10.5 -55.5h-158 q3 58 21.5 105.5t45 78t63.5 53t70.5 34t73.5 18.5t65 8.5t52 1.5q70 0 127.5 -11t96 -28.5t67.5 -42.5t45 -49.5t25.5 -53t12.5 -49.5t3 -42q0 -53 -17 -93.5t-45.5 -63t-52 -34t-49.5 -18.5v-6q34 -6 66.5 -20t64 -39.5t51 -68t19.5 -96.5q0 -58 -17 -106.5t-43 -79.5 t-62 -54.5t-67 -36t-66.5 -20.5t-52 -9.5t-30.5 -2.5v-311h-145v309q-62 2 -119 21t-107 56.5t-82.5 102.5t-38.5 150z" />
<glyph unicode="&#x49a;" horiz-adv-x="1267" d="M336 715l590 596h215l-623 -606l524 -558h201l-14 -444h-154v297h-123l-616 684v-684h-176v1311h176v-596z" />
<glyph unicode="&#x49b;" horiz-adv-x="972" d="M299 537l408 415h192l-446 -442l362 -393h150l-13 -365h-139v248h-86l-428 475v-475h-164v952h164v-415z" />
<glyph unicode="&#x49c;" horiz-adv-x="1200" d="M160 1311h176v-539h131v262h149v-262l373 539h176l-420 -596l461 -715h-192l-398 625v-301h-149v301h-131v-625h-176v1311z" />
<glyph unicode="&#x49d;" horiz-adv-x="1011" d="M135 952h164v-389h98v225h117v-225l305 389h176l-370 -442l395 -510h-180l-326 449v-263h-117v263h-98v-449h-164v952z" />
<glyph unicode="&#x4a0;" horiz-adv-x="1443" d="M606 715l590 596h215l-625 -606l666 -705h-229l-617 684v-684h-176v1163h-405v148h581v-596z" />
<glyph unicode="&#x4a1;" horiz-adv-x="1052" d="M436 537l408 415h192l-446 -442l471 -510h-197l-428 475v-475h-164v836h-247v116h411v-415z" />
<glyph unicode="&#x4a2;" horiz-adv-x="1378" d="M336 616v-616h-176v1311h176v-547h659v547h176v-1164h185l-15 -444h-153v297h-193v616h-659z" />
<glyph unicode="&#x4a3;" horiz-adv-x="1107" d="M299 444v-444h-164v952h164v-391h471v391h166v-835h164l-13 -365h-139v248h-178v444h-471z" />
<glyph unicode="&#x4aa;" horiz-adv-x="1333" d="M1087 434h177q-12 -92 -46 -172t-89.5 -145.5t-140 -106t-187.5 -47.5v-317h-170v317q-86 4 -165 31t-149 82t-121.5 131.5t-81.5 186t-30 239.5q0 345 164 532t454 187q120 0 214.5 -28t152 -71t96.5 -104t56 -118.5t24 -123.5h-176q-3 34 -12 67.5t-34.5 76.5t-63.5 75 t-104.5 54t-152.5 22q-95 0 -170 -31t-123 -83.5t-79.5 -125.5t-44.5 -152t-13 -169q0 -234 120 -383t325 -149q155 0 258 92t112 233z" />
<glyph unicode="&#x4ab;" horiz-adv-x="1026" d="M803 340h155q-5 -51 -20 -100.5t-43.5 -98t-67 -86t-94 -62.5t-121.5 -28v-311h-145v311q-97 7 -173 52t-121.5 117t-69 160.5t-23.5 188.5q0 72 11.5 138t43 135t80.5 119t131.5 82t188.5 32q97 0 174.5 -27t127.5 -74.5t78.5 -106.5t36.5 -128h-157q-36 219 -256 219 q-75 0 -131.5 -30t-89 -84.5t-48.5 -123t-16 -151.5q0 -82 17 -153.5t51.5 -128.5t92.5 -90t134 -33q67 0 117.5 25.5t78.5 66.5t42 83.5t16 86.5z" />
<glyph unicode="&#x4ae;" horiz-adv-x="1134" d="M567 705l365 606h209l-486 -764v-547h-176v547l-487 764h211z" />
<glyph unicode="&#x4af;" horiz-adv-x="935" d="M385 -346v364l-373 934h189l268 -751l268 751h187l-373 -934v-364h-166z" />
<glyph unicode="&#x4b0;" horiz-adv-x="1294" d="M649 705l363 606h211l-486 -764v-117h281v-149h-281v-281h-176v281h-282v149h282v117l-487 764h209z" />
<glyph unicode="&#x4b1;" horiz-adv-x="935" d="M385 -346v229h-223v117h223v18l-373 934h189l268 -751l268 751h187l-373 -934v-18h225v-117h-225v-229h-166z" />
<glyph unicode="&#x4b2;" horiz-adv-x="1230" d="M571 797l328 514h219l-434 -639l354 -525h168l-12 -444h-154v297h-125l-344 545l-344 -545h-227l459 672l-434 639h219z" />
<glyph unicode="&#x4b3;" horiz-adv-x="968" d="M453 600l243 352h185l-334 -456l276 -379h138l-13 -365h-139v248h-86l-270 391l-269 -391h-184l360 496l-333 456h182z" />
<glyph unicode="&#x4b8;" horiz-adv-x="1228" d="M109 1311h176v-383q0 -123 54 -171.5t191 -51.5v262h150v-260q85 2 213 10v594h176v-1311h-176v569q-152 -8 -213 -10v-303h-150v301q-103 -2 -175.5 11t-130.5 49.5t-86.5 106.5t-28.5 175v412z" />
<glyph unicode="&#x4b9;" horiz-adv-x="970" d="M84 952h166v-293v-31.5t3 -29.5t8.5 -30t17.5 -23.5t29.5 -21t45 -12t62.5 -5.5v186h116v-186q22 1 69 2t71 2v442h164v-952h-164v393q-71 -6 -140 -6v-223h-116v223q-66 -2 -118 5t-86.5 19t-59 33t-37.5 40.5t-20.5 48t-9 49.5t-1.5 51v319z" />
<glyph unicode="&#x4ba;" horiz-adv-x="1193" d="M1059 0h-176v502q0 61 -13.5 102t-36 65t-65.5 36.5t-87 16t-116 3.5q-71 0 -254 -12v-713h-176v1311h176v-451q210 12 289 12q128 0 209 -14t140 -51.5t84.5 -104.5t25.5 -172v-530z" />
<glyph unicode="&#x4bb;" horiz-adv-x="1071" d="M135 1311h164v-492q126 170 328 170q51 0 93.5 -10t72.5 -25t54 -40t38.5 -46.5t25 -54t15.5 -52t7.5 -52t2.5 -43v-33.5v-633h-164v584v9q0 33 -0.5 51.5t-4 52t-10.5 54t-22 46.5t-35.5 40t-53 24.5t-73.5 10.5q-33 0 -64 -6t-71 -28t-69 -58t-49.5 -104t-20.5 -158 v-518h-164v1311z" />
<glyph unicode="&#x4d9;" horiz-adv-x="1069" d="M254 676h-156q12 63 39.5 114t60 82.5t75 55t77 35t73.5 18t57 7.5t34 1q75 0 138.5 -15t109 -38.5t82 -58.5t59.5 -69.5t40 -77.5t25 -76.5t12.5 -72.5t5.5 -59t1 -43q0 -104 -22.5 -187.5t-56 -136t-82 -91.5t-90 -57.5t-91 -29.5t-74 -12.5t-49.5 -1.5q-102 0 -181 30 t-128 80t-80 122t-42.5 149.5t-10.5 169.5h733q-1 45 -9 90t-29 94.5t-52.5 87t-84.5 62t-120 24.5q-59 0 -114 -21.5t-97 -67t-53 -107.5zM813 397h-559q2 -87 27 -150.5t55.5 -94.5t72 -49.5t64.5 -21.5t45 -3q70 0 124.5 22.5t85 55t50.5 78t27 84t8 79.5z" />
<glyph unicode="&#x1e80;" horiz-adv-x="1869" d="M336 0l-336 1311h199l190 -785q20 -82 49 -260q18 90 60 260l235 785h187l235 -785l59 -260q21 123 52 260l207 785h194l-356 -1311h-185l-303 1227l-297 -1227h-190zM614 1737h215l121 -264h-133z" />
<glyph unicode="&#x1e81;" horiz-adv-x="1429" d="M289 0l-279 956h180l140 -559q2 -12 7 -35.5t14.5 -67t17.5 -81.5q14 77 39 184l145 559h184l140 -550q13 -43 38 -185q9 51 43 185l152 550h170l-287 -956h-168l-184 735l-186 -735h-166zM410 1343h215l120 -264h-133z" />
<glyph unicode="&#x1e82;" horiz-adv-x="1869" d="M336 0l-336 1311h199l190 -785q20 -82 49 -260q18 90 60 260l235 785h187l235 -785l59 -260q21 123 52 260l207 785h194l-356 -1311h-185l-303 1227l-297 -1227h-190zM745 1473l121 262h209l-196 -262h-134z" />
<glyph unicode="&#x1e83;" horiz-adv-x="1429" d="M289 0l-279 956h180l140 -559q2 -12 7 -35.5t14.5 -67t17.5 -81.5q14 77 39 184l145 559h184l140 -550q13 -43 38 -185q9 51 43 185l152 550h170l-287 -956h-168l-184 735l-186 -735h-166zM530 1081l121 262h209l-196 -262h-134z" />
<glyph unicode="&#x1e84;" horiz-adv-x="1869" d="M336 0l-336 1311h199l190 -785q20 -82 49 -260q18 90 60 260l235 785h187l235 -785l59 -260q21 123 52 260l207 785h194l-356 -1311h-185l-303 1227l-297 -1227h-190zM893 1688h164v-213h-164v213zM584 1475v213h164v-213h-164z" />
<glyph unicode="&#x1e85;" horiz-adv-x="1429" d="M289 0l-279 956h180l140 -559q2 -12 7 -35.5t14.5 -67t17.5 -81.5q14 77 39 184l145 559h184l140 -550q13 -43 38 -185q9 51 43 185l152 550h170l-287 -956h-168l-184 735l-186 -735h-166zM756 1335h164v-213h-164v213zM446 1122v213h164v-213h-164z" />
<glyph unicode="&#x1ef2;" horiz-adv-x="1429" d="M510 518l-510 793h213l393 -621l377 621h215l-504 -793v-518h-184v518zM393 1735h215l121 -265h-133z" />
<glyph unicode="&#x1ef3;" d="M197 956l256 -757l247 757h181l-381 -1062q-54 -148 -88 -191q-65 -96 -172 -96q-75 0 -138 16v158q61 -25 99 -25q57 0 84 41q26 37 80 183l-355 976h187zM246 1343h215l121 -264h-133z" />
<glyph unicode="&#x2000;" horiz-adv-x="996" />
<glyph unicode="&#x2001;" horiz-adv-x="1993" />
<glyph unicode="&#x2002;" horiz-adv-x="996" />
<glyph unicode="&#x2003;" horiz-adv-x="1993" />
<glyph unicode="&#x2004;" horiz-adv-x="664" />
<glyph unicode="&#x2005;" horiz-adv-x="498" />
<glyph unicode="&#x2006;" horiz-adv-x="332" />
<glyph unicode="&#x2007;" horiz-adv-x="332" />
<glyph unicode="&#x2008;" horiz-adv-x="249" />
<glyph unicode="&#x2009;" horiz-adv-x="398" />
<glyph unicode="&#x200a;" horiz-adv-x="110" />
<glyph unicode="&#x2010;" horiz-adv-x="659" d="M100 524v-153h422v153h-422z" />
<glyph unicode="&#x2011;" horiz-adv-x="659" d="M100 524v-153h422v153h-422z" />
<glyph unicode="&#x2012;" horiz-adv-x="659" d="M100 524v-153h422v153h-422z" />
<glyph unicode="&#x2013;" horiz-adv-x="1124" d="M94 557h936v-117h-936v117z" />
<glyph unicode="&#x2014;" horiz-adv-x="1843" d="M94 440v117h1657v-117h-1657z" />
<glyph unicode="&#x2015;" horiz-adv-x="1980" d="M63 444h1856v138h-1856v-138z" />
<glyph unicode="&#x2017;" d="M1008 -272v79h-1024v-79h1024zM1008 -426v82h-1024v-82h1024z" />
<glyph unicode="&#x2018;" horiz-adv-x="583" d="M385 866h-186v262q0 54 18 95.5t48 66t59 38t61 20.5v-103q-39 -4 -66.5 -39t-27.5 -78v-59h94v-203z" />
<glyph unicode="&#x2019;" horiz-adv-x="583" d="M199 1311h186v-262q0 -54 -18 -95.5t-48.5 -65.5t-58.5 -37.5t-61 -21.5v105q39 3 66.5 37.5t27.5 77.5v59h-94v203z" />
<glyph unicode="&#x201a;" horiz-adv-x="583" d="M199 205h186v-262q0 -54 -18 -95.5t-48 -65.5t-59 -37.5t-61 -20.5v102q40 4 67 38.5t27 78.5v57h-94v205z" />
<glyph unicode="&#x201b;" horiz-adv-x="397" d="M299 1307v-209h-92q6 -88 24 -117q18 -35 68 -51v-96q-197 44 -197 282v191h197z" />
<glyph unicode="&#x201c;" horiz-adv-x="790" d="M643 866h-186v264q0 90 54 147.5t132 72.5v-103q-40 -11 -67 -42t-27 -75v-61h94v-203zM334 866h-187v264q0 91 54 148t133 72v-103q-40 -11 -67 -42t-27 -75v-61h94v-203z" />
<glyph unicode="&#x201d;" horiz-adv-x="790" d="M147 1311h187v-264q0 -90 -54 -147t-133 -73v103q41 11 68 42t27 75v61h-95v203zM457 1311h186v-264q0 -91 -53.5 -147.5t-132.5 -72.5v103q40 11 67 42t27 75v61h-94v203z" />
<glyph unicode="&#x201e;" horiz-adv-x="790" d="M147 205h187v-262q0 -88 -46 -141t-141 -78v102q40 6 67.5 39t27.5 78v57h-95v205zM457 205h186v-262q0 -172 -186 -219v102q40 6 67 39t27 78v57h-94v205z" />
<glyph unicode="&#x2020;" horiz-adv-x="935" d="M393 1311h150v-359h348v-127h-348v-1171h-150v1171h-346v127h346v359z" />
<glyph unicode="&#x2021;" horiz-adv-x="997" d="M66 930v-148h344v-512h-344v-149h344v-391h163v391h357v149h-357v512h357v148h-357v377h-163v-377h-344z" />
<glyph unicode="&#x2022;" horiz-adv-x="1124" d="M375 655q0 78 54 133.5t132 55.5q79 0 134 -55.5t55 -133.5t-55 -132t-134 -54q-78 0 -132 54t-54 132z" />
<glyph unicode="&#x2026;" horiz-adv-x="1744" d="M199 0v205h186v-205h-186zM780 0v205h185v-205h-185zM1360 0v205h186v-205h-186z" />
<glyph unicode="&#x202f;" horiz-adv-x="398" />
<glyph unicode="&#x2030;" horiz-adv-x="1789" d="M1395 324q0 -248 129 -248q131 0 131 260q0 244 -129 244q-131 0 -131 -256zM1284 317q0 353 246 353q237 0 237 -328q0 -170 -63.5 -263t-179.5 -93q-240 0 -240 331zM811 324q0 -248 127 -248q129 0 129 260q0 244 -123 244q-133 0 -133 -256zM698 317q0 353 248 353 q230 0 230 -328q0 -356 -238 -356q-240 0 -240 331zM207 0l692 1280h102l-694 -1280h-100zM139 948q0 -250 125 -250q129 0 129 265q0 243 -123 243q-131 0 -131 -258zM27 944q0 350 243 350q236 0 236 -327q0 -357 -240 -357q-239 0 -239 334z" />
<glyph unicode="&#x2032;" horiz-adv-x="434" d="M133 776h41l135 285q54 120 72 164q8 21 8 49q0 67 -74 67q-92 0 -127 -112q-15 -51 -26 -166z" />
<glyph unicode="&#x2033;" horiz-adv-x="825" d="M158 776h41l135 285q54 120 72 164q8 21 8 49q0 67 -74 67q-92 0 -127 -112q-16 -56 -27 -166zM487 776h41l136 285q46 101 71 164q8 21 8 49q0 67 -73 67q-92 0 -127 -112q-16 -56 -27 -166z" />
<glyph unicode="&#x2039;" horiz-adv-x="536" d="M197 510l198 -168v-156l-278 246v154l278 245v-153z" />
<glyph unicode="&#x203a;" horiz-adv-x="536" d="M340 510l-199 168v153l279 -245v-154l-279 -246v156z" />
<glyph unicode="&#x203c;" horiz-adv-x="1134" d="M270 207h-196v-207h196v207zM74 1311l39 -987h116l41 987h-196zM745 207h-196v-207h196v207zM549 1311l39 -987h117l40 987h-196z" />
<glyph unicode="&#x2044;" horiz-adv-x="299" d="M444 1278l-694 -1278h109l696 1278h-111z" />
<glyph unicode="&#x205f;" horiz-adv-x="498" />
<glyph unicode="&#x207f;" horiz-adv-x="624" d="M205 991v113h-31l-172 -68l14 -32q19 8 39 8t29 -6q14 -14 14 -136v-194q0 -40 -8 -64q-9 -28 -76 -28v-33h279v33q-72 0 -84 30q-4 16 -4 62v270q66 72 139 72q86 0 86 -129v-213q0 -50 -6 -62q-15 -30 -86 -30v-33h280v33q-44 0 -55 8q-28 12 -28 84v223 q0 205 -146 205q-91 0 -184 -113z" />
<glyph unicode="&#x20a3;" d="M406 379v264h169q94 0 133.5 -42t39.5 -142h34v446h-34q-12 -98 -46 -135q-36 -45 -127 -45h-169v514h186q98 0 151 -18q97 -41 140 -197h35l-13 287h-874v-35h49q69 0 110 -41q29 -23 29 -156v-700h-188v-72h188v-76q0 -119 -22 -147q-37 -49 -117 -49h-49v-35h563v35 h-47q-43 0 -90 24q-32 21 -39 41q-12 35 -12 131v76h264v72h-264z" />
<glyph unicode="&#x20a4;" d="M293 545q10 -160 10 -203q0 -14 -4 -96q-49 6 -82 6q-69 0 -113 -41q-45 -45 -45 -111q0 -54 30.5 -88.5t82.5 -34.5q105 0 180 154q109 -83 146 -104q86 -50 170 -50q116 0 196 103q65 86 80 213l-35 8q-44 -154 -202 -154q-74 0 -142 23l-176 55q62 171 62 320h247v92 h-247q-1 15 -2 34.5t-2 33t-1 24.5h252v92h-258q-12 182 -12 211q0 254 176 254q111 0 117 -108q9 -117 76 -117q29 0 51 25t22 55q0 90 -77 147q-73 51 -164 51q-178 0 -273 -139q-86 -121 -86 -301q0 -49 2 -78h-178v-92h185l8 -92h-193v-92h199zM289 166 q-35 -133 -113 -133q-61 0 -61 73q0 89 92 89q35 0 82 -29z" />
<glyph unicode="&#x20a7;" horiz-adv-x="2267" d="M569 662h-262v485h295q287 0 287 -227q0 -258 -320 -258zM1501 844v112h-153v238h-166v-238h-105q-12 187 -157 279q-125 76 -318 76h-479v-1311h184v496h316q159 0 280 77q136 91 166 246h113v-569q0 -161 43 -219q42 -60 157 -60q4 0 62 4q34 5 57 5v110 q101 -119 316 -119q169 0 276 88t107 228q0 90 -43 133q-45 48 -166 98l-279 113q-82 37 -82 88q0 46 51 82q47 33 131 33q188 0 191 -154h170q0 145 -105 227q-98 76 -249 76q-223 0 -318 -139zM1604 313h-172q0 -114 49 -190q-8 -2 -29 -2q-68 0 -88 26q-16 19 -16 91v581 h139q-27 -59 -27 -117q0 -141 170 -215l301 -129q90 -40 90 -96q0 -62 -55 -99.5t-147 -37.5q-114 0 -164.5 43.5t-50.5 144.5z" />
<glyph unicode="&#x20ac;" horiz-adv-x="1021" d="M979 1165l-59 -174q-37 74 -111.5 120t-185.5 46q-68 0 -122 -28.5t-87 -77t-51 -105t-23 -119.5h524l-43 -135h-487v-131h440l-45 -131h-385q10 -139 86 -226t182 -87q95 0 188.5 45t119.5 88v-184q-11 -11 -45.5 -31t-105.5 -42t-142 -22q-195 0 -311.5 116.5 t-145.5 342.5h-145l45 131h90v131h-133l45 135h94q22 228 141 353t326 125q118 0 209.5 -39t136.5 -101z" />
<glyph unicode="&#x2105;" horiz-adv-x="1650" d="M612 909l-22 11q-41 -94 -78 -121q-55 -49 -127 -49q-86 0 -141 67q-76 92 -76 234q0 118 59 186q44 55 115 55q96 0 102 -90q10 -84 80 -84q68 0 68 64q0 73 -80 118q-68 41 -143 41q-142 0 -234 -108q-86 -103 -86 -244q0 -135 72 -239q77 -115 209 -115q111 0 188 86 q71 74 94 188zM1300 1341h-86l-954 -1394h84zM1280 686q-142 0 -233 -113q-91 -105 -91 -245q0 -143 86 -242q89 -106 230 -106q94 0 167 46.5t117 137.5q43 87 43 180q0 138 -90 242q-87 100 -229 100zM1255 637q78 0 134 -68q75 -103 75 -280q0 -258 -161 -258 q-78 0 -134 71q-75 106 -75 285q0 250 161 250z" />
<glyph unicode="&#x2113;" horiz-adv-x="948" d="M96 309l25 -24l160 159v-96q0 -145 24 -203q64 -172 250 -172q101 0 176 66q91 82 133 240h-35q-82 -248 -233 -248q-164 0 -164 256v317q142 157 203 252q115 168 115 297q0 87 -52 137.5t-139 50.5q-145 0 -219 -124q-59 -103 -59 -259v-462zM432 657v369 q0 262 133 262q64 0 101 -55q30 -49 30 -117q0 -166 -264 -459z" />
<glyph unicode="&#x2116;" horiz-adv-x="2095" d="M336 1040v-1040h-176v1311h194l697 -1039v1039h176v-1311h-193zM1368 641q0 43 8 86t29.5 91.5t54.5 85.5t89 61t128 24q141 0 225.5 -92t84.5 -256q0 -68 -14.5 -123t-37 -90.5t-54 -62t-60 -40t-60.5 -21.5t-50 -9.5t-34 -1.5q-34 0 -70 7.5t-80.5 31t-78.5 60 t-57 101.5t-23 148zM1513 641q0 -108 45 -169.5t119 -61.5q40 0 70.5 18t47.5 43.5t28 59t14.5 60t3.5 50.5q0 31 -7 65.5t-23 73.5t-51 64.5t-83 25.5q-74 0 -119 -60.5t-45 -168.5zM1393 0v139h569v-139h-569z" />
<glyph unicode="&#x2122;" horiz-adv-x="1613" d="M250 1208h-213v103h565v-103h-213v-553h-139v553zM1081 655l-190 502h-10l8 -84v-418h-141v656h188l176 -451l16 -65h7l16 65l176 451h186v-656h-139v418l6 84h-8l-192 -502h-99z" />
<glyph unicode="&#x212e;" horiz-adv-x="1187" d="M311 512h799q-9 241 -137 391q-141 156 -375 156q-229 0 -375 -158q-135 -150 -135 -389q0 -234 135 -387q144 -156 375 -156q150 0 262 68q102 68 191 196l-70 41q-138 -237 -383 -237q-164 0 -287 117v358zM887 584h-576v286q119 119 285 119q169 0 291 -119v-286z" />
<glyph unicode="&#x2153;" horiz-adv-x="1484" d="M1225 1339h-86l-903 -1390h86zM123 1214v-73h164v-502h92v704h-72q-19 -77 -63 -100q-38 -23 -121 -29zM1372 180q0 -63 -40.5 -99t-102.5 -36q-142 0 -154 152h-94q5 -121 66 -183.5t176 -62.5q110 0 177.5 63.5t67.5 169.5q0 138 -116 168q51 23 71.5 55t20.5 89 q0 91 -59.5 142.5t-153.5 51.5q-113 0 -172.5 -62.5t-61.5 -176.5h93q12 149 133 149q57 0 90 -28.5t33 -79.5q0 -109 -136 -109h-45v-80h47q160 0 160 -123z" />
<glyph unicode="&#x2154;" horiz-adv-x="1484" d="M1249 1339h-86l-903 -1390h86zM1339 180q0 -63 -40.5 -99t-102.5 -36q-142 0 -154 152h-94q5 -121 66 -183.5t176 -62.5q110 0 178 63.5t68 169.5q0 138 -117 168q51 23 71.5 55t20.5 89q0 91 -59.5 142.5t-153.5 51.5q-113 0 -172 -62.5t-61 -176.5h92q12 149 133 149 q57 0 90 -28.5t33 -79.5q0 -109 -135 -109h-45v-80h47q159 0 159 -123zM182 1094q6 172 144 172q58 0 95.5 -34.5t37.5 -92.5q0 -16 -2.5 -30t-10 -27t-13.5 -23t-20.5 -22.5t-23.5 -19.5t-29.5 -20t-31 -19.5t-36.5 -21.5t-38 -22q-88 -52 -127 -107q-53 -74 -53 -192h477 v90h-375q17 74 117 139q19 12 54.5 32t59.5 33.5t54 36.5t48.5 46.5t31 58t12.5 74.5q0 101 -61.5 156t-163.5 55q-134 0 -197 -96q-38 -53 -41 -166h92z" />
<glyph unicode="&#x215b;" horiz-adv-x="1484" d="M1249 1339h-86l-903 -1390h86zM123 1214v-73h164v-502h92v704h-72q-19 -77 -63 -100q-38 -23 -121 -29zM1087 350q-112 -55 -112 -178q0 -103 65.5 -163t171.5 -60t173 61.5t67 163.5q0 126 -111 176q89 42 89 148q0 94 -60.5 143t-157.5 49q-95 0 -156 -51.5t-61 -144.5 q0 -103 92 -144zM1094 489q0 51 31.5 81t86.5 30q53 0 86 -28t33 -78t-31 -78.5t-88 -28.5q-118 0 -118 102zM1212 303q64 0 104 -34.5t40 -94.5q0 -59 -40 -95t-102 -36q-64 0 -104.5 32.5t-40.5 92.5q0 57 41.5 96t101.5 39z" />
<glyph unicode="&#x215c;" horiz-adv-x="1484" d="M1249 1339h-86l-903 -1390h86zM1087 350q-112 -55 -112 -178q0 -103 65.5 -163t171.5 -60t173 61.5t67 163.5q0 126 -111 176q89 42 89 148q0 94 -60.5 143t-157.5 49q-95 0 -156 -51.5t-61 -144.5q0 -103 92 -144zM1094 489q0 51 31.5 81t86.5 30q53 0 86 -28t33 -78 t-31 -78.5t-88 -28.5q-118 0 -118 102zM1212 303q64 0 104 -34.5t40 -94.5q0 -59 -40 -95t-102 -36q-64 0 -104.5 32.5t-40.5 92.5q0 57 41.5 96t101.5 39zM479 827q0 -63 -41.5 -99t-105.5 -36q-145 0 -154 152h-94q3 -121 65 -184.5t179 -63.5q112 0 181 63.5t69 171.5 q0 140 -121 170q52 23 73 56t21 90q0 93 -60 144.5t-157 51.5q-113 0 -172.5 -63t-61.5 -178h93q12 151 135 151q58 0 90.5 -29.5t32.5 -82.5q0 -109 -136 -109h-45v-80h47q162 0 162 -125z" />
<glyph unicode="&#x215d;" horiz-adv-x="1484" d="M1249 1339h-86l-903 -1390h86zM1087 350q-112 -55 -112 -178q0 -103 65.5 -163t171.5 -60t173 61.5t67 163.5q0 126 -111 176q89 42 89 148q0 94 -60.5 143t-157.5 49q-95 0 -156 -51.5t-61 -144.5q0 -103 92 -144zM1094 489q0 51 31.5 81t86.5 30q53 0 86 -28t33 -78 t-31 -78.5t-88 -28.5q-118 0 -118 102zM1212 303q64 0 104 -34.5t40 -94.5q0 -59 -40 -95t-102 -36q-64 0 -104.5 32.5t-40.5 92.5q0 57 41.5 96t101.5 39zM76 807q9 -101 71 -156t166 -55q115 0 183.5 73t68.5 187q0 103 -64.5 169.5t-166.5 66.5q-77 0 -139 -50l32 199 h301v94h-372l-58 -397l82 -6q56 65 135 65q69 0 111.5 -42.5t42.5 -110.5q0 -70 -42 -111t-112 -41q-122 0 -143 115h-96z" />
<glyph unicode="&#x215e;" horiz-adv-x="1484" d="M1212 1339h-86l-903 -1390h86zM1102 350q-113 -55 -113 -178q0 -103 66 -163t172 -60q105 0 172 61.5t67 163.5q0 127 -110 176q88 42 88 148q0 94 -60 143t-157 49q-95 0 -156 -51.5t-61 -144.5q0 -103 92 -144zM1108 489q0 51 32 81t87 30q53 0 86 -28t33 -78 t-31 -78.5t-88 -28.5q-119 0 -119 102zM1227 303q64 0 103.5 -34.5t39.5 -94.5q0 -59 -39.5 -95t-101.5 -36q-64 0 -105 33t-41 92q0 57 42 96t102 39zM70 1335v-98h399q-240 -282 -301 -643h106q73 377 304 653v88h-508z" />
<glyph unicode="&#x2202;" horiz-adv-x="978" d="M899 692q-31 58 -53 82q-100 103 -250 103q-212 0 -377 -177q-158 -178 -158 -407q0 -150 89 -236q91 -88 239 -88q253 0 424 305q150 270 150 615q0 184 -52 285q-93 200 -303 200q-134 0 -227 -84q-72 -67 -141 -207h45q109 154 290 154q164 0 250 -102q84 -96 84 -263 q0 -88 -10 -180zM881 608q-66 -293 -224 -458q-126 -123 -243 -123q-97 0 -144 67q-45 62 -45 160q0 147 62 301q114 270 317 270q200 0 277 -217z" />
<glyph unicode="&#x220f;" horiz-adv-x="1630" d="M1198 1296v-1536q0 -82 -35.5 -115.5t-120.5 -33.5h-34v-37h579v37h-35q-84 0 -119.5 34t-35.5 115v1428q0 81 35.5 115t119.5 34h35v35h-1544v-35h37q84 0 120 -34t36 -115v-1428q0 -81 -36 -115t-120 -34h-37v-37h580v37h-37q-84 0 -120 34t-36 115v1536h768z" />
<glyph unicode="&#x2211;" horiz-adv-x="1411" d="M1311 -426l61 399l-37 9q-44 -177 -153 -211q-79 -27 -148 -27h-790l608 819l-543 731h715q212 0 242 -245h37l-25 323h-1237v-35l649 -858l-649 -868v-37h1270z" />
<glyph unicode="&#x2212;" horiz-adv-x="1116" d="M1077 698v-80h-1042v80h1042z" />
<glyph unicode="&#x221a;" horiz-adv-x="1087" d="M1014 1808l-252 -1572l-391 796l-289 -147l31 -62l192 88l479 -987l301 1884h-71z" />
<glyph unicode="&#x221e;" horiz-adv-x="1411" d="M631 645q-59 109 -111 158q-69 63 -172 63q-135 0 -221 -112q-76 -105 -76 -244q0 -143 90 -250q95 -106 242 -106q197 0 313 227q80 -143 148 -207q84 -72 178 -72q145 0 248 134q90 125 90 274q0 171 -100 283q-105 120 -271 120q-141 0 -225 -69q-66 -52 -133 -199z M725 451q74 193 100 243q73 144 207 144q120 0 199 -107q74 -100 74 -221q0 -131 -72 -221q-76 -94 -207 -94q-111 0 -188 77q-59 59 -113 179zM604 569q-65 -196 -115 -256q-69 -84 -161 -84q-101 0 -168 95q-56 83 -56 188q0 112 62 186q71 80 178 80q168 0 260 -209z" />
<glyph unicode="&#x2229;" horiz-adv-x="1429" d="M291 0v547q0 173 4 231q6 129 41 226q41 86 121 147q112 84 254 84q183 0 305 -125q92 -103 110 -291q7 -68 7 -272v-547h104v541q0 245 -2 278q-18 236 -143 361q-156 159 -379 159q-230 0 -381 -161q-118 -124 -139 -332q-7 -68 -7 -305v-541h105z" />
<glyph unicode="&#x222b;" horiz-adv-x="542" d="M195 866q-3 -110 12 -426q5 -171 22 -327q11 -90 11 -115q0 -59 -37 -59q-16 0 -49 30q-31 31 -66 31q-88 0 -88 -94q0 -53 31.5 -85t83.5 -32q80 0 129 64q80 104 86 385q16 560 16 571q0 233 -35 641q-10 110 -10 141q0 60 39 60q20 0 39 -19q38 -35 74 -35 q40 0 64 29.5t24 71.5q0 44 -37 74q-40 30 -84 30q-110 0 -160 -129q-46 -107 -49 -246z" />
<glyph unicode="&#x2248;" horiz-adv-x="1087" d="M1018 1004q-21 -181 -182 -181q-37 0 -64 6q-31 9 -151 58q-197 84 -283 104q-40 15 -84 15q-49 0 -109 -31q-111 -69 -114 -232h41q30 177 178 177q65 0 213 -62q35 -16 100 -42.5t76 -31.5q108 -43 186 -43q107 0 170 78q61 76 64 185h-41zM1018 528 q-21 -180 -182 -180q-37 0 -64 8q-55 15 -151 56q-203 84 -283 106q-43 12 -86 12q-58 0 -107 -32q-111 -69 -114 -232h41q30 178 178 178q60 0 213 -61l217 -90q99 -29 145 -29q105 0 170 80q61 73 64 184h-41z" />
<glyph unicode="&#x2260;" horiz-adv-x="1087" d="M25 791v-91h548l-139 -358h-409v-90h372l-200 -512h75l205 512h586v90h-551l139 358h412v91h-375l199 516h-76l-205 -516h-581z" />
<glyph unicode="&#x2261;" horiz-adv-x="1116" d="M37 1012v-80h1042v80h-1042zM37 696v-78h1042v78h-1042zM37 381v-80h1042v80h-1042z" />
<glyph unicode="&#x2264;" horiz-adv-x="1110" d="M973 195v137l-697 299l697 299v135l-873 -385v-102zM104 0h869v139h-869v-139z" />
<glyph unicode="&#x2265;" horiz-adv-x="1087" d="M100 1065v-135l697 -299l-697 -299v-137l873 383v102zM104 0h869v139h-869v-139z" />
<glyph unicode="&#x2310;" horiz-adv-x="1116" d="M1081 850h-1044v-395h76v315h968v80z" />
<glyph unicode="&#x25a1;" horiz-adv-x="1196" d="M141 913v-913h912v913h-912zM213 840h768v-766h-768v766z" />
<glyph unicode="&#x25aa;" horiz-adv-x="700" d="M573 879l-446 -2v-447h446v449z" />
<glyph unicode="&#x25ab;" horiz-adv-x="700" d="M573 879l-446 -2v-447h446v449zM502 807v-303h-301v301z" />
<glyph unicode="&#x25ca;" horiz-adv-x="978" d="M530 1374h-106l-379 -688l379 -686h106l404 686zM479 1282l346 -596l-346 -596l-329 596z" />
<glyph unicode="&#x25cf;" horiz-adv-x="1196" d="M598 985q-108 0 -209 -55q-100 -56 -160 -156q-57 -105 -57 -215q0 -180 123 -303q126 -123 303 -123t303 123q123 123 123 303q0 105 -57 213q-59 100 -156 156q-102 57 -213 57z" />
<glyph unicode="&#x25e6;" horiz-adv-x="700" d="M350 897q-100 0 -172 -72q-69 -66 -69 -170q0 -103 69 -172q71 -71 172 -71t172 71q72 72 72 172q0 101 -72 170q-72 72 -172 72zM350 823q75 0 121 -49q49 -46 49 -119q0 -68 -49 -120q-50 -50 -121 -50q-69 0 -119 50q-49 52 -49 120q0 73 49 119q46 49 119 49z" />
<glyph unicode="&#xe000;" horiz-adv-x="952" d="M0 952h952v-952h-952v952z" />
<glyph horiz-adv-x="1167" d="M389 537l201 575l194 -575h-395zM504 1311l-504 -1311h195l137 389h504l133 -389h198l-473 1311h-190zM399 1710h215l121 -264h-133z" />
<glyph horiz-adv-x="1030" d="M479 842q-213 0 -213 -183h-162q0 159 105 241.5t278 82.5q176 0 271.5 -70t95.5 -233v-457q0 -102 55 -102q28 0 60 16v-131q-59 -35 -113 -35q-136 0 -154 158q-152 -158 -329 -158q-137 0 -222 78.5t-85 212.5q0 140 112 217q70 50 194.5 74.5t317.5 40.5v57 q0 191 -211 191zM690 346v131q-262 -30 -354 -71q-98 -43 -98 -142q0 -143 176 -143q66 0 127 25.5t103.5 78.5t45.5 121zM274 1341h215l121 -264h-133z" />
<glyph horiz-adv-x="1163" d="M121 1311v-1311h940v164h-760v432h705v164h-705v387h760v164h-940zM412 1710h215l121 -264h-134z" />
<glyph horiz-adv-x="1026" d="M948 504v-78h-690q18 -301 264 -301q198 0 242 188h172q-31 -155 -145.5 -248.5t-272.5 -93.5q-107 0 -191.5 39t-138 108t-81 160.5t-27.5 198.5q0 145 50 258t153.5 180.5t246.5 67.5q108 0 189.5 -36.5t130.5 -102t73.5 -151t24.5 -189.5zM526 834q-237 0 -264 -261 h518q-9 123 -75.5 192t-178.5 69zM303 1339h215l121 -264h-133z" />
<glyph horiz-adv-x="1316" d="M952 985l-581 -985h-248v1311h184v-1112l64 133l573 979h252v-1311h-186v1102zM444 1708h215l121 -264h-133z" />
<glyph horiz-adv-x="1007" d="M121 956h166v-608q0 -125 43 -174q40 -49 141 -49q127 0 197 104q57 85 57 242v485h164v-956h-164v150q-77 -179 -293 -179q-311 0 -311 371v614zM303 1339h215l121 -264h-133z" />
<glyph horiz-adv-x="1421" d="M707 -29q-194 0 -337.5 86.5t-216.5 238t-73 347.5q0 204 73 359t218.5 244t347.5 89q293 0 462 -183.5t169 -483.5q0 -148 -42 -274t-121.5 -221t-202.5 -148.5t-277 -53.5zM715 141q151 0 253.5 70t148.5 186t46 271q0 226 -116 363.5t-332 137.5q-112 0 -198.5 -39.5 t-139.5 -110.5t-80 -165t-27 -207q0 -226 115 -366t330 -140zM492 1708h215l120 -264h-133z" />
<glyph horiz-adv-x="1017" d="M76 477q0 110 26 200.5t78 159.5t136.5 107.5t193.5 38.5q143 0 242.5 -67.5t145.5 -179.5t46 -259q0 -107 -27.5 -198t-80 -160t-136.5 -108.5t-190 -39.5q-211 0 -322.5 139.5t-111.5 366.5zM510 125q123 0 189.5 94.5t66.5 267.5q0 69 -14.5 129t-43.5 110t-80 79 t-118 29q-124 0 -191 -93.5t-67 -263.5q0 -167 67 -259.5t191 -92.5zM274 1339h215l121 -264h-133z" />
<glyph horiz-adv-x="1060" d="M870 1311h193l-432 -1037q-26 -62 -49.5 -104.5t-60 -84.5t-86.5 -63.5t-113 -21.5h-115v158h76q102 0 147 96l33 72l-453 985h205l344 -768zM324 1710h215l120 -264h-133z" />
<glyph horiz-adv-x="882" d="M197 956l256 -757l247 757h181l-381 -1062q-54 -148 -88 -191q-65 -96 -172 -96q-75 0 -138 16v158q61 -25 99 -25q57 0 84 41q26 37 80 183l-355 976h187zM225 1343h215l121 -264h-133z" />
<glyph horiz-adv-x="1275" d="M432 1311v-482h338q189 0 311.5 -107t122.5 -290q0 -206 -124 -319t-335 -113h-499v1155h-246v156h432zM735 664h-303v-500h293q125 0 208 67t83 189q0 118 -78.5 181t-202.5 63zM373 1708h215l121 -264h-134z" />
<glyph horiz-adv-x="1024" d="M586 733q161 0 261.5 -97.5t100.5 -256.5q0 -192 -96 -300t-285 -108q-358 0 -358 342v496h-209v147h373v-294q109 71 213 71zM776 346q0 96 -49 167t-137 71q-111 0 -217 -56v-231q0 -178 205 -178q93 0 145.5 65.5t52.5 161.5zM285 1341h215l121 -264h-134z" />
<glyph horiz-adv-x="1265" d="M543 754h475q-24 191 -130 302.5t-288 112.5q-293 0 -358 -268h-183q23 210 173.5 322t375.5 112q118 0 216.5 -35.5t169 -98.5t119.5 -150t73 -190t24 -218q0 -146 -38 -268.5t-111.5 -212.5t-189 -140.5t-261.5 -50.5q-225 0 -374.5 143.5t-176.5 372.5h183 q26 -165 124 -255.5t250 -90.5q181 0 285.5 119t116.5 313h-475v181zM389 1710h215l121 -264h-133z" />
<glyph d="M39 346h170q53 -221 229 -221q233 0 260 293h-284v147h280q-10 127 -78.5 198t-177.5 71q-185 0 -229 -207h-170q15 163 123.5 259.5t275.5 96.5q148 0 248.5 -70t145.5 -185t45 -267q0 -223 -112.5 -356.5t-328.5 -133.5q-168 0 -276 101t-121 274zM246 1343h215 l121 -264h-133z" />
<glyph horiz-adv-x="1789" d="M1516 668q0 225 -114.5 363t-328.5 138q-223 0 -336.5 -142t-113.5 -380q0 -228 116 -365t334 -137q110 0 195.5 39.5t139 110.5t81 165.5t27.5 207.5zM436 623h-131v-623h-186v1311h186v-547h135q32 271 199 421t434 150q195 0 339 -84t218 -233t74 -346 q0 -117 -26 -222t-78.5 -192.5t-127 -151.5t-177 -99.5t-222.5 -35.5q-296 0 -466.5 177t-170.5 475zM840 1710h215l121 -264h-134z" />
<glyph horiz-adv-x="1388" d="M610 479q0 -72 14 -133t43.5 -112t82 -80t122.5 -29q123 0 190.5 94.5t67.5 267.5q0 71 -14.5 131.5t-44.5 110t-81 77.5t-118 28q-124 0 -193 -94.5t-69 -260.5zM438 401h-137v-401h-178v1311h178v-746h141q19 200 131 309t299 109q108 0 192 -38t136.5 -106.5 t79.5 -159.5t27 -200q0 -145 -46 -257.5t-146 -181.5t-243 -69q-192 0 -306 117t-128 313zM608 1339h215l121 -264h-133z" />
<glyph horiz-adv-x="1193" d="M1073 1311v-1311h-184v537h-326q-163 0 -237 -211l-45 -125q-18 -65 -70 -201h-205q29 45 88 199l64 170q74 200 254 252q-131 27 -210 111t-79 208q0 181 128.5 276t332.5 95h489zM889 702v445h-297q-262 0 -262 -221q0 -224 276 -224h283zM471 1710h215l121 -264h-133z " />
<glyph horiz-adv-x="870" d="M451 956h299v-956h-168v346h-183l-178 -346h-209l240 387q-180 79 -180 272q0 74 30.5 132.5t84 93.5t120.5 53t144 18zM582 481v324h-168q-69 0 -117.5 -47.5t-48.5 -118.5q0 -68 48.5 -113t117.5 -45h168zM264 1343h215l121 -264h-133z" />
<glyph horiz-adv-x="1558" d="M307 1311v-482h338q191 0 312.5 -105t121.5 -292q0 -203 -124 -317.5t-334 -114.5h-498v1311h184zM608 664h-301v-500h293q126 0 208.5 67.5t82.5 188.5q0 116 -75.5 180t-207.5 64zM1440 0h-185v1311h185v-1311zM389 1710h215l121 -264h-133z" />
<glyph horiz-adv-x="1179" d="M498 733q156 0 260 -101.5t104 -252.5q0 -190 -98.5 -299t-284.5 -109q-356 0 -356 342v643h164v-294q103 71 211 71zM690 346q0 95 -49.5 166.5t-136.5 71.5q-116 0 -217 -56v-231q0 -178 205 -178q89 0 143.5 66.5t54.5 160.5zM944 956h166v-956h-166v956zM303 1339 h215l121 -264h-133z" />
</font>
</defs>
</svg>
